<?xml version="1.0" standalone="no"?>
<!DOCTYPE svg PUBLIC "-//W3C//DTD SVG 1.1//EN" "http://www.w3.org/Graphics/SVG/1.1/DTD/svg11.dtd" >
<svg xmlns="http://www.w3.org/2000/svg">
<metadata>Generated by IcoMoon</metadata>
<defs>
<font id="finder-icons" horiz-adv-x="1024">
<font-face units-per-em="1024" ascent="960" descent="-64" />
<missing-glyph horiz-adv-x="1024" />
<glyph unicode="&#x20;" horiz-adv-x="512" d="" />
<glyph unicode="&#xe900;" glyph-name="airbnb" d="M512 79.872c-57.6-64.427-132.181-128.725-218.752-139.179l-0.085 0.384c-4.224-1.792-8.704-2.816-13.397-2.475-129.621-15.573-236.203 88.448-236.203 215.893 0 106.24 136.405 341.504 280.789 645.077 38.016 78.848 77.397 160.427 187.221 160.427 110.635 0 148.309-77.952 194.645-174.037 274.219-546.688 274.219-576.853 274.219-631.509 0-64.469-27.435-125.227-75.221-166.656-88.576-76.8-236.928-82.773-393.216 92.075zM916.48 154.453c0 83.883-128.171 309.931-267.691 603.392-37.803 74.752-58.411 138.155-136.363 138.155-67.413 0-91.051-42.624-130.475-124.245-140.587-295.552-274.432-529.493-274.432-617.301 0-83.285 62.677-164.181 178.091-150.229 71.040 8.576 136.533 70.443 183.979 124.288-471.979 609.451 558.763 611.883 84.779 0 192.768-218.539 362.112-112.043 362.112 25.941zM405.333 409.173c0-58.667 36.821-138.283 106.667-230.741 69.845 92.459 106.667 172.075 106.667 230.741 0 152.363-213.333 152.363-213.333 0z" />
<glyph unicode="&#xe901;" glyph-name="behance" d="M527.488 322.261c0 78.848-37.504 137.131-114.987 158.976 56.533 26.923 86.016 67.712 86.016 131.157 0 125.099-93.525 155.605-201.429 155.605h-297.088v-628.096h305.408c114.517 0 222.080 54.741 222.080 182.357zM138.496 660.779h129.963c49.963 0 94.933-13.995 94.933-71.765 0-53.333-34.987-74.795-84.48-74.795h-140.416v146.56zM138.453 246.571v172.971h150.955c60.971 0 99.541-25.344 99.541-89.685 0-63.445-46.037-83.285-102.4-83.285h-148.096zM801.963 128.004c108.971 0 179.541 48.939 213.504 152.96h-110.592c-11.904-38.827-60.971-59.349-99.029-59.349-73.429 0-112 42.88-112 115.755h329.088c10.411 145.835-70.827 270.122-221.013 270.122-139.051 0-233.429-104.192-233.429-240.682 0-141.653 89.429-238.805 233.472-238.805zM798.037 513.114c62.933 0 94.592-36.864 99.883-97.152h-203.904c4.139 59.776 43.947 97.152 104.021 97.152zM668.463 735.021h255.488v-61.867h-255.488v61.867z" />
<glyph unicode="&#xe902;" glyph-name="dribbble" d="M876.493 775.111l-6.882 7.494c-89.476 95.566-216.678 155.395-357.611 155.395-56.077 0-109.969-9.496-160.191-26.917l-5.103-1.8c-164.026-58.957-287.784-203.049-317.716-378.731-0.036-0.166-0.088-0.324-0.121-0.491-0.108-0.559-0.15-1.118-0.238-1.673-4.338-26.167-6.631-53.013-6.631-80.388 0-116.817 41.114-224.196 109.6-308.489 0.033-0.047 5.704-6.891 5.704-6.891 89.958-106.701 224.535-174.622 374.697-174.622 56.747 0 111.258 9.728 161.988 27.554 1.335 0.41 2.65 0.866 3.934 1.387 160.943 58.099 282.995 198.199 315.486 369.617 0.081 0.418 0.166 0.832 0.239 1.25 5.461 29.248 8.354 59.383 8.354 90.193 0 125.603-47.522 240.303-125.508 327.111zM512 840c100.779 0 192.785-38.236 262.302-100.95-48.683-66.696-116.749-110.554-191.305-138.843-12.429 29.021-24.841 55.325-36.745 78.769-34.496 67.953-68.365 120.020-94.78 156.349 19.738 3.071 39.945 4.675 60.527 4.675zM351.071 805.425c29.227-36.528 84.671-114.092 137.031-232.848-137.479-29.492-278.452-19.715-351.325-11.064 32.967 108.751 111.991 197.669 214.293 243.912zM120 448c0 5.568 0.147 11.102 0.376 16.619 39.053-4.885 96.961-10.185 164.48-10.185 32.693 0 67.646 1.242 103.769 4.378 48.145 4.181 93.539 11.409 136.103 21.491 9.357-26.342 18.359-54.157 26.786-83.494-44.156-12.847-89.758-28.89-136.765-48.166-101.348-41.553-183.985-88.064-230.117-116.006-40.827 61.854-64.631 135.876-64.631 215.364zM512 56c-100.852 0-192.922 38.293-262.46 101.090 65.392 38.421 188.156 103.915 325.957 144.418 15.364-70.694 26.999-148.557 32.883-233.506-30.839-7.829-63.13-12.002-96.38-12.002zM703.68 106.172c-6.882 79.006-18.509 151.846-33.079 218.347 72.149 13.449 145.698 17.451 215.164 5.252-30.272-95.492-96.201-175.253-182.084-223.599zM903.381 426.21c-77.781 13.837-163.558 11.708-256.708-6.276-8.939 31.462-18.436 61.12-28.224 89.020 91.972 35.188 166.4 87.014 221.013 154.261 40.772-61.818 64.538-135.791 64.538-215.215 0-7.309-0.213-14.571-0.619-21.79z" />
<glyph unicode="&#xe903;" glyph-name="dropbox" d="M511.953 768.725l303.744-181.163 208.299 161.067-301.269 190.037-210.773-169.941zM512 768.64l-210.773 170.027-301.227-189.995 208.341-161.152 303.659 181.12zM512 406.357l210.731-169.941 301.269 189.995-208.303 161.152-303.697-181.205-303.744 181.205-208.256-161.152 301.227-189.995 210.773 169.941zM832.047 141.35v90.667l-94.037-59.307c-5.333-3.413-11.477-5.077-17.536-5.077-7.339 0-14.635 2.475-20.608 7.211l-187.819 151.509-187.862-151.509c-10.795-8.704-26.368-9.557-38.187-2.133l-93.952 59.264v-90.624l320.64-184.021 319.36 184.021z" />
<glyph unicode="&#xe904;" glyph-name="facebook-square" d="M128-64h384v352h-128v160h128v128c0 106.069 85.931 192 192 192h128v-160h-64c-35.328 0-64 3.328-64-32v-128h160l-64-160h-96v-352h192c70.571 0 128 57.429 128 128v768c0 70.613-57.429 128-128 128h-768c-70.613 0-128-57.387-128-128v-768c0-70.571 57.387-128 128-128z" />
<glyph unicode="&#xe905;" glyph-name="facebook" d="M682.539 789.973h93.483v162.816c-16.128 2.219-71.595 7.211-136.192 7.211-134.784 0-227.114-84.779-227.114-240.597v-143.403h-148.736v-182.016h148.736v-457.984h182.357v457.941h142.72l22.656 182.016h-165.419v125.397c0.043 52.608 14.208 88.619 87.509 88.619z" />
<glyph unicode="&#xe906;" glyph-name="foursquare" d="M149.333 867.797v-867.669c0-40.619 23.851-55.381 35.883-60.203 12.245-4.992 44.928-9.216 64.853 14.208 254.037 298.837 258.389 303.829 258.389 303.829 6.101 6.784 6.699 6.187 13.397 6.187h164.352c69.163 0 80 50.389 87.339 79.403l95.787 486.059c16.725 84.779-4.352 130.389-83.2 130.389h-538.453c-73.899 0-98.347-56.619-98.347-92.203zM263.168 814.165c0 15.403 13.397 33.195 32.725 33.195h431.659c16.128 0 30.72-15.403 26.624-34.987l-0.128 0.043-22.443-119.381c-2.347-13.013-18.731-26.411-33.28-26.411h-209.792c-23.68 0-40.619-16.597-40.619-40.619v-25.984c0-24.021 16.939-41.216 40.619-41.216h178.176c16.341 0 32.725-18.389 29.184-36.395-3.541-17.792-20.693-107.605-22.443-117.589-1.749-9.813-13.397-27.008-33.323-27.008h-144.853c-26.624 0-33.877-3.584-52.224-25.216 0 0-17.536-22.784-176.384-216.661-1.749-1.792-3.541-1.195-3.541 0.597v677.632h0.043z" />
<glyph unicode="&#xe907;" glyph-name="github" d="M512 938.667c-282.88 0-512-225.28-512-503.125 0-222.336 146.688-410.88 350.080-477.355 25.6-4.736 34.987 10.837 34.987 24.192 0 11.947-0.427 43.605-0.64 85.547-142.421-30.336-172.459 67.499-172.459 67.499-23.296 58.069-56.96 73.6-56.96 73.6-46.379 31.189 3.584 30.549 3.584 30.549 51.413-3.499 78.421-51.84 78.421-51.84 45.653-76.928 119.851-54.699 149.12-41.856 4.608 32.555 17.792 54.699 32.427 67.285-113.707 12.587-233.216 55.851-233.216 248.619 0 54.912 19.84 99.797 52.693 134.997-5.76 12.715-23.040 63.872 4.48 133.163 0 0 42.88 13.483 140.8-51.584 40.96 11.179 84.48 16.725 128 16.981 43.52-0.256 87.040-5.803 128-16.981 97.28 65.067 140.16 51.584 140.16 51.584 27.52-69.291 10.24-120.448 5.12-133.163 32.64-35.2 52.48-80.085 52.48-134.997 0-193.28-119.68-235.819-233.6-248.192 17.92-15.104 34.56-45.952 34.56-93.099 0-67.328-0.64-121.429-0.64-137.771 0-13.184 8.96-28.928 35.2-23.893 204.843 66.048 351.403 254.72 351.403 476.715 0 277.845-229.248 503.125-512 503.125z" />
<glyph unicode="&#xe908;" glyph-name="google-drive" d="M473.984 542.383l-165.803 282.837-308.181-542.208 161.195-283.008 312.789 542.378zM350.806 896l327.21-565.803h322.389l-327.211 565.803h-322.389zM402.987 283.012l-161.195-283.008h621.013l161.195 283.008h-621.013z" />
<glyph unicode="&#xe909;" glyph-name="google-play" d="M775.168 284.237l-122.283 120.235-448.898-442.667 571.181 322.432zM775.168 611.545l-571.181 322.432 448.898-442.666 122.283 120.234zM954.146 387.115c36.608 28.587 36.608 93.013-2.432 121.6l-119.808 68.181-133.675-129.024 133.675-129.024 122.24 68.267zM86.774-64l521.986 512.085-521.986 511.915c-26.411-13.611-44.118-38.4-44.118-70.613v-882.773c0-32.213 17.707-57.003 44.118-70.613z" />
<glyph unicode="&#xe90a;" glyph-name="google" d="M512 533.333v-170.667h241.408c-35.243-99.328-130.133-170.667-241.408-170.667-141.141 0-256 114.859-256 256s114.859 256 256 256c61.184 0 120.064-21.931 165.803-61.781l112.128 128.683c-76.8 66.901-175.445 103.765-277.931 103.765-235.264 0-426.667-191.403-426.667-426.667s191.403-426.667 426.667-426.667c235.264 0 426.667 191.403 426.667 426.667v85.333h-426.667z" />
<glyph unicode="&#xe90b;" glyph-name="hangouts" d="M960 512c0 247.467-200.533 448-448 448s-448-200.533-448-448c0-234.667 213.333-426.667 448-426.667v-149.333c270.933 132.267 448 349.867 448 576zM554.667 640h192v-192c0-59.733-38.4-106.667-85.333-106.667v106.667h-106.667v192zM490.667 448c0-59.733-38.4-106.667-85.333-106.667v106.667h-106.667v192h192v-192z" />
<glyph unicode="&#xe90c;" glyph-name="instagram" d="M512.171 710.911c-145.194 0-262.74-117.675-262.74-262.74 0-145.195 117.675-262.741 262.74-262.741 145.195 0 262.741 117.675 262.741 262.741 0 145.194-117.675 262.74-262.741 262.74zM512.171 277.632c-94.25 0-170.538 76.331-170.538 170.539s76.331 170.538 170.538 170.538c94.208 0 170.539-76.331 170.539-170.538 0.043-94.208-76.288-170.539-170.539-170.539zM723.115 956.763c-94.208 4.395-327.553 4.181-421.846 0-82.859-3.883-155.947-23.893-214.869-82.816-98.475-98.475-85.888-231.168-85.888-425.772 0-199.168-11.093-328.789 85.888-425.771 98.859-98.816 233.472-85.888 425.772-85.888 197.291 0 265.387-0.128 335.147 26.88 94.848 36.821 166.443 121.6 173.44 273.877 4.437 94.251 4.181 327.553 0 421.846-8.448 179.755-104.917 288.768-297.643 297.643zM872.235 87.556c-64.555-64.555-154.112-58.795-361.301-58.795-213.334 0-298.881-3.157-361.302 59.435-71.893 71.552-58.88 186.453-58.88 360.661 0 235.735-24.192 405.505 212.395 417.623 54.357 1.92 70.357 2.56 207.19 2.56l1.92-1.28c227.371 0 405.76 23.808 416.469-212.736 2.432-53.974 2.987-70.187 2.987-206.807-0.043-210.859 3.968-296.917-59.477-360.661zM785.323 659.886c33.907 0 61.397 27.489 61.397 61.397s-27.49 61.397-61.397 61.397c-33.911 0-61.397-27.488-61.397-61.397s27.486-61.397 61.397-61.397z" />
<glyph unicode="&#xe90d;" glyph-name="linkedin" d="M1023.744-64l0.256 0.043v375.552c0 183.723-39.552 325.246-254.336 325.246-103.253 0-172.544-56.661-200.832-110.377h-2.987v93.225h-203.646v-683.646h212.052v338.517c0 89.131 16.896 175.317 127.275 175.317 108.757 0 110.379-101.717 110.379-181.035v-332.843h211.84zM16.896 619.649h212.309v-683.649h-212.309v683.649zM122.965 960c-67.883 0-122.965-55.083-122.965-122.965s55.083-124.117 122.965-124.117c67.883 0 122.965 56.235 122.965 124.117-0.043 67.883-55.125 122.965-122.965 122.965z" />
<glyph unicode="&#xe90e;" glyph-name="medium" d="M942.293 758.059l81.707 78.165v17.109h-283.051l-201.728-502.101-229.504 502.101h-296.789v-17.109l95.445-114.901c9.301-8.491 14.165-20.907 12.928-33.408v-451.541c2.944-16.256-2.347-32.981-13.781-44.8l-107.52-130.304v-16.896h304.853v17.109l-107.52 130.091c-11.648 11.861-17.152 28.288-14.805 44.8v390.571l267.605-582.784h31.104l230.101 582.784v-464.256c0-12.245 0-14.763-8.021-22.784l-82.773-80.085v-17.152h401.579v17.109l-79.787 78.123c-6.997 5.291-10.624 14.165-9.131 22.784v574.592c-1.493 8.661 2.091 17.536 9.088 22.784z" />
<glyph unicode="&#xe90f;" glyph-name="messenger" d="M0 485.931c0-149.163 74.411-282.24 190.763-369.152v-180.779l174.336 95.659c46.507-12.843 95.787-19.84 146.859-19.84 282.752 0 512 212.224 512 474.069 0.043 261.845-229.205 474.112-511.957 474.112s-512-212.224-512-474.069v0zM457.984 618.709l133.547-139.051 251.179 139.051-279.893-297.045-130.347 139.008-254.421-139.051 279.936 297.088z" />
<glyph unicode="&#xe910;" glyph-name="odnoklassniki" d="M201.428 410.419c-26.155-51.413 3.541-75.989 71.296-117.973 57.6-35.584 137.173-48.597 188.289-53.803-20.949-20.139 75.051 72.192-201.43-193.749-58.624-56.192 35.755-146.347 94.336-91.349l158.593 152.96c60.715-58.411 118.912-114.389 158.592-153.173 58.624-55.211 152.96 34.176 94.976 91.349-4.352 4.139-214.912 206.123-202.069 193.749 51.755 5.205 130.133 18.987 187.051 53.803l-0.043 0.043c67.755 42.197 97.451 66.731 71.68 118.144-15.573 29.184-57.557 53.589-113.451 11.392 0 0-75.477-57.813-197.205-57.813-121.772 0-197.206 57.813-197.206 57.813-55.851 42.411-98.005 17.792-113.408-11.392zM511.953 441.941c148.395 0 269.568 115.968 269.568 258.731 0 143.36-121.173 259.328-269.568 259.328-148.435 0-269.609-115.968-269.609-259.328 0-142.763 121.173-258.731 269.609-258.731zM511.953 828.629c72.917 0 132.395-57.216 132.395-127.957 0-70.144-59.477-127.36-132.395-127.36s-132.393 57.216-132.393 127.36c-0.043 70.784 59.433 127.957 132.393 127.957z" />
<glyph unicode="&#xe911;" glyph-name="paypal" d="M948.693 781.404c41.591-76.275 27.866-166.22 11.486-219.376-88.644-289.546-488.61-273.793-546.471-273.793-57.795 0-71.254-53.897-71.254-53.897l-43.213-188.523c-11.779-66.176-71.793-62.878-71.793-62.878s-78.009 0-130.188 0c-3.273 0-6.328 0.226-9.134 0.631-0.645-12.117 1.079-47.543 44.401-47.543 52.139 0 130.147 0 130.147 0s60.014-3.362 71.834 62.805l43.165 188.523c0 0 13.507 53.897 71.3 53.897 57.771 0 457.83-15.748 546.517 273.805 19.785 64.719 35.874 183.636-46.797 266.349zM259.043 86.908l43.206 188.535c0 0 13.421 53.798 71.301 53.798 57.745 0 457.78-15.663 546.428 273.821 32.439 105.837 54.959 356.92-348.954 356.92h-291.751c0 0-60.642 2.816-75.606-61.659l-190.628-822.714c0 0-8.185-51.558 43.974-51.558 52.207 0 130.233 0 130.233 0s60.013-3.392 71.796 62.857zM368.997 565.481l38.742 167.179c0 0 12.339 45.462 52.208 52.193 39.825 6.755 107.665-1.201 125.12-4.495 113.297-21.279 89.199-128.478 89.199-128.478-22.43-165.475-280.006-142.512-280.006-142.512-40.384 14.601-25.263 56.113-25.263 56.113z" />
<glyph unicode="&#xe912;" glyph-name="pinterest" d="M525.909 960c-280.704-0.043-429.909-179.883-429.909-375.979 0-90.923 50.816-204.373 132.181-240.341 23.211-10.453 20.139 2.304 40.107 78.677 1.579 6.357 0.768 11.861-4.352 17.792-116.309 134.528-22.699 411.093 245.376 411.093 387.968 0 315.477-536.832 67.499-536.832-63.915 0-111.531 50.176-96.469 112.256 18.261 73.941 54.016 153.429 54.016 206.72 0 134.315-200.107 114.389-200.107-63.573 0-54.997 19.456-92.117 19.456-92.117s-64.384-260.096-76.331-308.693c-20.224-82.261 2.731-215.424 4.736-226.901 1.237-6.315 8.32-8.32 12.288-3.115 6.357 8.32 84.181 119.339 105.984 199.595 7.936 29.227 40.491 147.84 40.491 147.84 21.461-38.741 83.328-71.168 149.248-71.168 196.096 0 337.835 172.373 337.835 386.261-0.683 205.056-176.171 358.485-402.048 358.485v0z" />
<glyph unicode="&#xe913;" glyph-name="rss" d="M146.304-64.009c80.801 0 146.304 65.502 146.304 146.304s-65.503 146.304-146.304 146.304c-80.801 0-146.304-65.502-146.304-146.304s65.503-146.304 146.304-146.304zM487.637-63.996h194.987c0 376.363-306.261 682.624-682.624 682.666v-195.072c268.885-0.043 487.637-218.709 487.637-487.595zM1024-64c0 564.651-459.349 1024-1024 1024v-195.029c457.13 0 829.013-371.797 829.013-828.971h194.987z" />
<glyph unicode="&#xe914;" glyph-name="skype" d="M994.517 339.332c74.155 333.227-217.771 635.947-560.597 577.835-186.112 115.499-433.92-15.019-433.92-236.459 0-51.499 14.208-99.712 38.912-141.269-68.907-333.995 225.408-632.363 567.936-570.283 242.133-128.043 509.696 127.317 387.669 370.176zM668.629 138.372c-89.941-36.992-237.952-37.205-327.509 9.685-127.701 68.096-150.4 221.397-40.235 221.397 83.029 0 56.747-96.811 140.587-136.277 38.485-17.792 121.216-19.627 169.301 12.8 47.488 31.787 43.136 81.792 17.323 105.685-68.395 63.147-264.107 38.059-353.579 148.608-38.869 47.958-46.208 132.566 1.579 193.92 83.285 107.179 327.68 113.707 432.768 32.768 97.024-75.093 70.827-174.763-7.467-174.763-94.165 0-44.672 123.221-196.693 123.221-110.208 0-153.557-78.379-75.947-116.523 105.216-52.267 373.333-34.816 373.333-239.062-0.213-84.992-52.309-148.352-133.461-181.461z" />
<glyph unicode="&#xe915;" glyph-name="slack" d="M377.299 420.228c-59.392 0-107.562-48.171-107.562-107.563v-269.056c0-59.392 48.171-107.563 107.562-107.563 59.394 0 107.565 48.171 107.565 107.563v269.056c-0.043 59.392-48.213 107.563-107.565 107.563zM0.809 312.653c0-59.435 48.213-107.648 107.648-107.648s107.648 48.213 107.648 107.648v107.648h-107.563c-0.043 0-0.043 0-0.085 0-59.435 0-107.648-48.213-107.648-107.648zM377.427 960.042c-0.043 0-0.085 0-0.128 0-59.434 0-107.648-48.213-107.648-107.648s48.213-107.648 107.648-107.648h107.565c0 61.056 0 46.208 0 107.861-0.043 59.349-48.128 107.435-107.437 107.435zM107.731 474.88h269.568c59.437 0 107.65 48.213 107.65 107.648s-48.213 107.648-107.65 107.648h-269.568c-59.435 0-107.648-48.213-107.648-107.648s48.213-107.648 107.648-107.648zM915.499 690.212c-59.349 0-107.435-48.085-107.435-107.435v-107.859h107.563c59.435 0 107.648 48.213 107.648 107.646 0 59.435-48.213 107.648-107.648 107.648-0.043 0-0.085 0-0.128 0zM539.349 852.386v-269.867c0-59.392 48.171-107.563 107.563-107.563s107.563 48.171 107.563 107.563v269.867c0 59.392-48.171 107.563-107.563 107.563s-107.563-48.171-107.563-107.563zM754.428 43.695c0 59.392-48.166 107.563-107.558 107.563h-107.563v-107.648c0.043-59.349 48.171-107.477 107.563-107.477s107.558 48.171 107.558 107.563zM916.433 420.301h-269.564c-59.435 0-107.648-48.213-107.648-107.648s48.213-107.648 107.648-107.648h269.564c59.435 0 107.648 48.213 107.648 107.648s-48.213 107.648-107.648 107.648z" />
<glyph unicode="&#xe916;" glyph-name="snapchat" d="M886.575 120.094c38.912 6.101 119.424 20.181 134.827 55.637 7.765 18.261-3.328 33.109-17.493 35.371v0.043c-136.875 22.528-198.571 162.731-201.088 168.704-37.931 68.011 65.024 56.576 105.515 98.048 39.509 40.661-23.851 84.695-63.488 66.007-16.256-7.637-40.619-16.514-56.832-9.088 3.84 64.384 14.464 171.136-11.605 229.419-87.68 196.394-346.24 203.477-466.39 89.472-94.677-89.771-83.072-182.059-74.197-318.891-29.44-12.844-58.539 12.672-79.744 12.672-22.272 0-48.171-14.466-52.352-36.268-5.291-28.629 25.813-47.061 52.736-57.685 45.867-18.005 89.472-23.339 65.28-72.491-0.213-0.384-0.384-0.768-0.512-1.152-34.261-78.251-109.056-153.472-201.131-168.661-14.848-2.432-25.003-18.091-17.579-35.371v-0.085c15.232-35.499 96.512-49.707 134.869-55.68 11.861-22.187 2.773-66.005 39.509-66.005 14.293 0 41.941 9.344 77.227 9.344 51.413 0 68.949-11.221 110.165-40.32 42.325-29.909 88.833-59.136 146.646-54.912 60.203-3.755 104.917 23.936 148.779 54.827l0.043 0.085c42.752 30.080 73.301 52.309 163.84 34.517 66.987-12.971 47.445 32.384 62.976 62.464z" />
<glyph unicode="&#xe917;" glyph-name="soundcloud" d="M864 490.658c-11.392 0-22.571-1.237-33.365-3.499-14.379 145.449-137.472 259.497-286.635 259.497-17.664 0-32-14.336-32-32v-511.998c0-17.664 14.336-32 32-32h320c88.277 0 160 71.723 160 160 0 88.192-71.723 160-160 160zM384 650.656v-447.998c0-17.664 14.336-32 32-32s32 14.336 32 32v447.998c0 17.664-14.336 32-32 32s-32-14.336-32-32zM256 522.654v-320c0-17.664 14.336-32 32-32s32 14.336 32 32v320c0 17.666-14.336 32.002-32 32.002s-32-14.336-32-32.002zM128 202.654c0-17.664 14.336-32 32-32s32 14.336 32 32v320c0 17.666-14.336 32.002-32 32.002s-32-14.336-32-32.002v-320zM32 170.658c17.664 0 32 14.336 32 32v192c0 17.664-14.336 32-32 32s-32-14.336-32-32v-192c0-17.664 14.336-32 32-32z" />
<glyph unicode="&#xe918;" glyph-name="telegram-circle" d="M512-64c282.837 0 512 229.163 512 512s-229.163 512-512 512c-282.837 0-512-229.163-512-512s229.163-512 512-512zM234.283 459.093l493.653 190.336c22.912 8.277 42.923-5.589 35.499-40.235l0.043 0.043-84.053-395.989c-6.229-28.075-22.912-34.901-46.251-21.675l-128 94.336-61.739-59.477c-6.827-6.827-12.587-12.587-25.813-12.587l9.088 130.261 237.227 214.315c10.325 9.088-2.304 14.208-15.915 5.163l-293.163-184.576-126.379 39.424c-27.435 8.704-28.032 27.435 5.803 40.661z" />
<glyph unicode="&#xe919;" glyph-name="telegram" d="M401.8 312.282l-16.939-238.251c24.235 0 34.731 10.411 47.318 22.912l113.621 108.587 235.435-172.416c43.179-24.064 73.6-11.392 85.248 39.723l154.539 724.138 0.043 0.043c13.696 63.829-23.083 88.789-65.152 73.131l-908.374-347.775c-61.995-24.064-61.056-58.624-10.539-74.283l232.235-72.235 539.436 337.535c25.387 16.811 48.469 7.509 29.483-9.301l-436.353-391.807z" />
<glyph unicode="&#xe91a;" glyph-name="tumblr" d="M810.667-4.011l-50.133 146.133c-19.541-9.131-56.619-17.024-83.968-17.877h-3.883c-79.488 0-95.061 58.453-95.744 101.163v318.72h209.109v155.008h-208.341v260.864h-152.533c-2.517 0-6.912-2.176-7.509-7.637-8.619-79.915-46.848-219.989-204.331-276.011v-132.224h104.789v-334.592c0-113.28 84.053-273.536 304.981-273.536l-0.469 0.085h7.723c76.203 1.28 161.408 32.768 180.309 59.904z" />
<glyph unicode="&#xe91b;" glyph-name="twitch" d="M41.594 781.867v-712.277h245.29v-133.589h133.931l133.719 133.632h200.747l267.691 267.008v623.36h-914.519l-66.858-178.133zM197.668 871.040h736.087v-489.771l-156.16-155.819h-245.376l-133.719-133.419v133.419h-200.832v645.589zM443.093 692.822h89.173v-267.094h-89.173v267.094zM688.337 692.822h89.216v-267.094h-89.216v267.094z" />
<glyph unicode="&#xe91c;" glyph-name="twitter" d="M918.784 656.512c41.643 29.568 76.672 66.475 105.216 108.971v0.043c-38.101-16.683-78.635-27.776-120.96-33.152 43.52 25.984 76.757 66.816 92.373 116.011-40.576-24.192-85.376-41.259-133.12-50.816-38.528 41.045-93.44 66.432-153.344 66.432-116.224 0-209.792-94.336-209.792-209.963 0-16.64 1.408-32.64 4.864-47.872-174.507 8.533-328.96 92.16-432.725 219.605-18.091-31.445-28.757-67.413-28.757-106.112 0-72.704 37.419-137.131 93.269-174.464-33.749 0.64-66.816 10.453-94.848 25.856v-2.304c0-102.016 72.747-186.752 168.192-206.293-17.109-4.693-35.712-6.912-55.040-6.912-13.44 0-27.008 0.768-39.723 3.584 27.179-83.115 104.405-144.256 196.139-146.261-71.424-55.851-162.133-89.515-260.309-89.515-17.195 0-33.707 0.768-50.219 2.859 93.013-59.947 203.179-94.208 322.048-94.208 370.475 0 611.925 309.077 596.736 624.512z" />
<glyph unicode="&#xe91d;" glyph-name="viber" d="M987.951 367.232c30.549 257.151-14.677 419.498-96.256 492.927l0.043 0.043c-131.669 125.397-576.342 143.957-733.868-5.632-70.741-73.173-95.659-180.565-98.389-313.515-2.731-132.991-5.973-382.121 226.176-449.705h0.213l-0.213-103.211c0 0-1.579-41.813 25.131-50.219 30.549-9.899 44.373 9.515 139.393 123.008 158.891-13.781 280.917 17.792 294.784 22.4 32.085 10.752 213.632 34.773 242.987 283.904zM465.839 133.547c0 0-100.566-125.397-131.841-157.952-10.24-10.581-21.461-9.6-21.291 11.392 0 13.781 0.768 171.349 0.768 171.349-196.821 56.405-185.216 268.544-183.083 379.519 2.133 111.019 22.443 201.941 82.347 263.168 138.197 129.578 528.044 100.608 627.372 7.253 121.429-107.648 78.208-411.775 78.464-422.143-24.96-207.957-172.075-221.141-199.125-230.144-11.563-3.84-118.869-31.445-253.611-22.443zM521.476 776.663c-16.427 0-16.427-25.6 0-25.813 127.445-0.981 232.405-89.813 233.557-252.759 0-17.195 25.173-16.981 24.96 0.213-1.365 175.575-116.011 277.378-258.517 278.359zM689.114 525.086c-0.384-16.981 24.747-17.792 24.96-0.597 2.091 96.812-57.6 176.556-169.771 184.962-16.427 1.195-18.133-24.619-1.749-25.813 97.28-7.381 148.523-73.771 146.56-158.551zM662.234 414.972c-21.077 12.203-42.539 4.608-51.413-7.381l-18.56-24.021c-9.429-12.203-27.051-10.581-27.051-10.581-128.597 34.005-162.987 168.575-162.987 168.575s-1.579 18.219 10.197 27.989l23.211 19.2c11.605 9.216 18.944 31.403 7.125 53.205-31.573 57.045-52.779 76.715-63.573 91.819-11.349 14.208-28.416 17.408-46.165 7.808h-0.384c-36.907-21.589-77.312-61.995-64.384-103.595 22.059-43.861 62.592-183.679 191.787-289.322 60.715-49.963 156.8-101.163 197.589-112.981l0.384-0.597c40.192-13.397 79.275 28.587 100.139 66.603v0.299c9.259 18.389 6.187 35.797-7.339 47.189-23.979 23.381-60.16 49.195-88.576 65.792zM561.882 614.219c41.003-2.389 60.885-23.808 63.019-67.798 0.768-17.193 25.728-15.998 24.96 1.195-2.731 57.43-32.683 89.43-86.613 92.416-16.427 0.981-17.963-24.832-1.365-25.813z" />
<glyph unicode="&#xe91e;" glyph-name="vimeo" d="M874.539 895.79c-141.995 5.163-237.909-76.245-288.512-242.944 26.027 11.648 51.328 16.853 75.819 16.853 52.011 0 75.008-29.739 68.864-88.832-3.072-35.797-25.941-87.85-68.779-156.33-43.051-68.48-75.221-102.784-96.64-102.784-64.939 0-103.979 310.783-117.205 395.647-18.389 117.973-67.413 173.141-147.072 165.419-73.131-6.955-200.747-138.624-301.013-227.883l48.171-62.805c45.867 32.512 72.619 48.811 80.256 48.811 79.829 0 118.485-271.658 180.48-473.684 41.6-111.488 91.477-167.253 151.595-167.253 96.597 0 214.272 91.477 353.707 274.517 134.613 175.232 204.331 313.343 208.811 414.079l0.555 0.427c5.717 135.040-43.563 204.16-149.035 206.763z" />
<glyph unicode="&#xe91f;" glyph-name="vk" d="M849.707 404.13c-16.555 20.907-11.819 30.208 0 48.896 0.213 0.213 136.875 189.054 150.955 253.097l0.085 0.043c6.997 23.339 0 40.491-33.835 40.491h-111.957c-28.501 0-41.643-14.72-48.683-31.189 0 0-57.003-136.448-137.643-224.894-26.027-25.557-38.059-33.749-52.267-33.749-6.997 0-17.877 8.192-17.877 31.531v217.812c0 27.989-7.979 40.491-31.573 40.491h-176.043c-17.877 0-28.501-13.056-28.501-25.216 0-26.539 40.32-32.64 44.501-107.307v-162.004c0-35.499-6.443-42.027-20.736-42.027-38.059 0-130.432 137.001-185.173 293.801-11.051 30.421-21.845 42.709-50.56 42.709h-112c-31.957 0-38.4-14.72-38.4-31.189 0-29.099 38.059-173.781 176.981-364.926 92.587-130.475 222.976-201.173 341.589-201.173 71.296 0 80 15.701 80 42.709 0 124.672-6.443 136.448 29.269 136.448 16.555 0 45.056-8.192 111.616-71.125 76.075-74.624 88.576-108.032 131.157-108.032h111.957c31.915 0 48.085 15.701 38.784 46.677-21.291 65.152-165.163 199.168-171.648 208.128z" />
<glyph unicode="&#xe920;" glyph-name="wechat" d="M546.999 549.619c-308.992-159.232-103.467-586.453 282.027-474.923 35.925-13.952 67.925-36.565 102.741-53.376-9.003 30.293-18.603 60.245-28.843 90.069 119.467 85.12 145.664 205.568 101.504 304.555-68.949 156.885-289.109 221.141-457.429 133.675zM654.946 393.545c-8.917-27.947-49.323-36.309-68.907-15.061-21.589 19.669-13.184 60.757 15.147 69.547 31.317 13.227 67.499-23.083 53.76-54.485zM858.893 389.534h0.597c-10.965-25.045-48.683-30.933-67.2-11.52-8.917 8.192-11.52 20.523-14.677 31.275 4.437 19.627 17.92 39.979 39.68 40.917 30.080 4.181 57.003-33.109 41.6-60.672zM742.997 608.079c-18.603 91.477-82.603 168.747-163.157 213.333h1.152c-285.865 161.536-641.79-63.744-573.011-329.47 18.475-78.848 73.003-144.939 139.179-189.056-12.8-36.395-24.96-72.789-36.48-109.44 41.6 21.845 83.2 44.672 124.843 66.859 49.92-16.085 103.040-23.936 156.16-22.187-65.621 188.245 102.697 387.668 351.315 369.961zM483.712 717.349c33.493 13.483 73.088-14.72 70.443-50.773l0.085-0.512c0.341-41.173-54.4-66.859-85.12-38.955-31.872 22.955-22.827 78.72 14.592 90.24zM295.767 655.61c-7.339-35.755-55.083-53.035-83.029-29.013-32.384 22.912-23.296 79.701 14.72 91.264 37.248 14.421 79.573-23.552 68.309-62.251z" />
<glyph unicode="&#xe921;" glyph-name="whatsapp" d="M746.965 349.568l-0.384-3.2c-93.824 46.763-103.637 52.992-115.755 34.816-8.405-12.587-32.896-41.131-40.277-49.579-7.467-8.32-14.891-8.96-27.563-3.2-12.8 6.4-53.888 19.84-102.528 63.36-37.888 33.92-63.317 75.52-70.827 88.32-12.501 21.589 13.653 24.661 37.461 69.716 4.267 8.96 2.091 16-1.067 22.357-3.2 6.4-28.672 69.12-39.339 94.123-10.24 24.917-20.779 21.76-28.672 21.76-24.576 2.133-42.539 1.792-58.368-14.677-68.864-75.691-51.499-153.77 7.424-236.799 115.797-151.552 177.493-179.456 290.304-218.197 30.464-9.685 58.24-8.32 80.213-5.163 24.491 3.883 75.392 30.763 86.016 60.843 10.88 30.080 10.88 55.040 7.68 60.8-3.157 5.76-11.52 8.96-24.32 14.72zM875.52 812.845c-328.064 317.141-870.997 87.125-871.211-360.276 0-89.429 23.424-176.64 68.053-253.653l-72.363-262.912 270.293 70.485c337.28-182.187 753.536 59.733 753.707 445.824 0 135.507-52.907 263.038-149.12 358.868l0.64 1.664zM938.752 453.722c-0.256-325.675-357.76-529.067-640.512-362.837l-15.36 9.131-160-41.6 42.88 155.52-10.197 16c-175.957 280.107 26.197 646.185 359.509 646.185 113.237 0 219.52-44.16 299.563-124.16 80-79.317 124.117-185.6 124.117-298.238z" />
<glyph unicode="&#xe922;" glyph-name="youtube" d="M1001.344 707.039l1.284-8.363c-12.378 43.904-45.781 77.781-88.239 90.112l-0.896 0.213c-79.829 21.675-401.062 21.675-401.062 21.675s-320.429 0.427-401.069-21.675c-43.264-12.544-76.715-46.421-88.875-89.429l-0.213-0.896c-29.824-155.776-30.037-342.956 1.323-509.74l-1.323 8.448c12.373-43.904 45.781-77.781 88.235-90.112l0.896-0.213c79.744-21.717 401.069-21.717 401.069-21.717s320.38 0 401.062 21.717c43.307 12.544 76.762 46.421 88.922 89.429l0.209 0.896c13.572 72.448 21.333 155.819 21.333 240.981 0 3.115 0 6.272-0.038 9.429 0.038 2.901 0.038 6.357 0.038 9.813 0 85.207-7.761 168.577-22.656 249.431zM409.943 292.233v311.169l267.351-155.82-267.351-155.349z" />
<glyph unicode="&#xe923;" glyph-name="alarm" d="M512 733.867c-187.733 0-341.333-153.6-341.333-341.333s153.6-341.333 341.333-341.333c187.733 0 341.333 153.6 341.333 341.333s-153.6 341.333-341.333 341.333zM55.467 392.533c0 251.733 204.8 452.267 456.533 452.267s456.533-204.8 456.533-456.533c0-247.467-204.8-452.267-456.533-452.267s-456.533 204.8-456.533 456.533zM512 618.667c29.867 0 55.467-25.6 55.467-55.467v-115.2h55.467c29.867 0 55.467-25.6 55.467-55.467s-25.6-55.467-55.467-55.467h-110.933c-29.867 0-55.467 25.6-55.467 55.467v170.667c0 29.867 25.6 55.467 55.467 55.467zM273.067 938.667c17.067-25.6 12.8-64-12.8-81.067l-153.6-115.2c-25.6-17.067-64-12.8-81.067 12.8s-12.8 59.733 12.8 81.067l157.867 115.2c21.333 17.067 59.733 8.533 76.8-12.8zM750.933 938.667c17.067 21.333 55.467 29.867 81.067 8.533l157.867-115.2c25.6-17.067 29.867-55.467 12.8-81.067s-55.467-29.867-81.067-12.8l-157.867 115.2c-25.6 21.333-29.867 59.733-12.8 85.333z" />
<glyph unicode="&#xe924;" glyph-name="alert-circle" d="M512 857.6c-226.133 0-409.6-183.467-409.6-409.6s183.467-409.6 409.6-409.6c226.133 0 409.6 183.467 409.6 409.6s-183.467 409.6-409.6 409.6zM0 448c0 281.6 230.4 512 512 512s512-230.4 512-512c0-281.6-230.4-512-512-512s-512 230.4-512 512zM512 704c29.867 0 51.2-21.333 51.2-51.2v-204.8c0-29.867-21.333-51.2-51.2-51.2s-51.2 21.333-51.2 51.2v204.8c0 29.867 21.333 51.2 51.2 51.2zM460.8 243.2c0 29.867 21.333 51.2 51.2 51.2v0c29.867 0 51.2-21.333 51.2-51.2s-21.333-51.2-51.2-51.2v0c-29.867 0-51.2 21.333-51.2 51.2z" />
<glyph unicode="&#xe925;" glyph-name="alert-octagon" d="M345.6 857.6h337.067c0 0 0 0 0 0l234.667-243.2c0 0 0 0 0 0v-337.067c0 0 0 0 0 0l-238.933-238.933c0 0 0 0 0 0h-337.067c0 0 0 0 0 0l-238.933 243.2c0 0 0 0 0 0v337.067c0 0 0 0 0 0l243.2 238.933c0 0 0 0 0 0zM341.333 960c-12.8 0-25.6-4.267-42.667-8.533-8.533-4.267-21.333-12.8-25.6-21.333l-243.2-243.2c-8.533-4.267-17.067-17.067-21.333-29.867s-8.533-25.6-8.533-38.4v-341.333c0-12.8 4.267-25.6 8.533-42.667 4.267-12.8 12.8-21.333 21.333-29.867l238.933-238.933c8.533-8.533 17.067-17.067 29.867-21.333 17.067-4.267 29.867-8.533 42.667-8.533h341.333c12.8 0 25.6 4.267 42.667 8.533 12.8 4.267 21.333 12.8 29.867 21.333l238.933 238.933c8.533 8.533 17.067 17.067 21.333 29.867s8.533 25.6 8.533 42.667v341.333c0 12.8-4.267 25.6-8.533 42.667-4.267 12.8-12.8 21.333-21.333 29.867l-238.933 238.933c-8.533 8.533-17.067 17.067-29.867 21.333-17.067 4.267-29.867 8.533-42.667 8.533h-341.333zM512 704c29.867 0 51.2-21.333 51.2-51.2v-204.8c0-29.867-21.333-51.2-51.2-51.2s-51.2 21.333-51.2 51.2v204.8c0 29.867 21.333 51.2 51.2 51.2zM460.8 243.2c0 29.867 21.333 51.2 51.2 51.2v0c29.867 0 51.2-21.333 51.2-51.2s-21.333-51.2-51.2-51.2v0c-29.867 0-51.2 21.333-51.2 51.2z" />
<glyph unicode="&#xe926;" glyph-name="alert-triange" d="M512 610.133c29.867 0 51.2-21.333 51.2-51.2v-102.4c0-29.867-21.333-51.2-51.2-51.2s-51.2 21.333-51.2 51.2v102.4c0 29.867 21.333 51.2 51.2 51.2zM512 302.933c29.867 0 51.2-21.333 51.2-51.2v0c0-29.867-21.333-51.2-51.2-51.2s-51.2 21.333-51.2 51.2v0c0 29.867 21.333 51.2 51.2 51.2zM435.2 896c21.333 17.067 46.933 21.333 76.8 21.333 25.6 0 55.467-8.533 76.8-21.333 25.6-12.8 42.667-34.133 55.467-55.467l362.667-627.2c0 0 4.267-4.267 4.267-8.533 8.533-21.333 12.8-46.933 8.533-72.533s-12.8-46.933-25.6-68.267c-12.8-21.333-34.133-38.4-55.467-51.2s-46.933-17.067-72.533-17.067v0h-712.533c0 0 0 0-4.267 0 0 0-4.267 0-4.267 0-25.6 0-46.933 8.533-68.267 21.333s-38.4 29.867-51.2 51.2c-12.8 21.333-21.333 42.667-21.333 68.267-4.267 25.6 0 46.933 12.8 72.533 0 4.267 0 4.267 4.267 8.533l354.133 622.933c17.067 21.333 34.133 42.667 59.733 55.467zM149.333 98.133c4.267 0 4.267 0 0 0h721.067c8.533 0 17.067 4.267 25.6 4.267 8.533 4.267 12.8 8.533 17.067 17.067s8.533 12.8 8.533 21.333c0 8.533 0 12.8-4.267 21.333l-358.4 627.2c-4.267 8.533-12.8 12.8-17.067 21.333-8.533 4.267-17.067 8.533-25.6 8.533s-17.067-4.267-25.6-8.533c-12.8-4.267-21.333-12.8-25.6-21.333v0l-358.4-622.933c-4.267-8.533-4.267-12.8-4.267-21.333s4.267-17.067 8.533-21.333c4.267-8.533 8.533-17.067 17.067-17.067 8.533-4.267 12.8-8.533 21.333-8.533v0z" />
<glyph unicode="&#xe927;" glyph-name="align-justify" d="M0 789.333c0 29.867 25.6 55.467 55.467 55.467h908.8c34.133 0 59.733-25.6 59.733-55.467s-25.6-55.467-55.467-55.467h-913.067c-29.867 0-55.467 25.6-55.467 55.467zM0 448c0 29.867 25.6 55.467 55.467 55.467h908.8c29.867 0 55.467-25.6 55.467-55.467s-25.6-55.467-55.467-55.467h-908.8c-29.867 0-55.467 25.6-55.467 55.467zM0 106.667c0 29.867 25.6 55.467 55.467 55.467h908.8c29.867 0 55.467-25.6 55.467-55.467s-25.6-55.467-55.467-55.467h-908.8c-29.867 0-55.467 25.6-55.467 55.467z" />
<glyph unicode="&#xe928;" glyph-name="align-left" d="M0 789.333c0 29.867 25.6 55.467 55.467 55.467h908.8c34.133 0 59.733-25.6 59.733-55.467s-25.6-55.467-55.467-55.467h-913.067c-29.867 0-55.467 25.6-55.467 55.467zM0 448c0 29.867 25.6 55.467 55.467 55.467h567.467c29.867 0 55.467-25.6 55.467-55.467s-25.6-55.467-55.467-55.467h-567.467c-29.867 0-55.467 25.6-55.467 55.467zM0 106.667c0 29.867 25.6 55.467 55.467 55.467h797.867c29.867 0 55.467-25.6 55.467-55.467s-25.6-55.467-55.467-55.467h-797.867c-29.867 0-55.467 25.6-55.467 55.467z" />
<glyph unicode="&#xe929;" glyph-name="align-right" d="M0 789.333c0 29.867 25.6 55.467 55.467 55.467h908.8c34.133 0 59.733-25.6 59.733-55.467s-25.6-55.467-55.467-55.467h-913.067c-29.867 0-55.467 25.6-55.467 55.467zM341.333 448c0 29.867 25.6 55.467 55.467 55.467h567.467c29.867 0 55.467-25.6 55.467-55.467s-25.6-55.467-55.467-55.467h-567.467c-29.867 0-55.467 25.6-55.467 55.467zM115.2 106.667c0 29.867 25.6 55.467 55.467 55.467h797.867c29.867 0 55.467-25.6 55.467-55.467s-25.6-55.467-55.467-55.467h-797.867c-29.867 0-55.467 25.6-55.467 55.467z" />
<glyph unicode="&#xe92a;" glyph-name="anchor" d="M972.8 448h-102.4c-29.867 0-51.2-21.333-51.2-51.2 0-25.6 21.333-51.2 46.933-51.2-12.8-76.8-46.933-145.067-102.4-200.533s-128-89.6-200.533-102.4v516.267c89.6 21.333 153.6 102.4 153.6 196.267 0 115.2-89.6 204.8-204.8 204.8s-204.8-89.6-204.8-204.8c0-93.867 64-174.933 153.6-196.267v-516.267c-76.8 12.8-149.333 46.933-200.533 102.4-55.467 55.467-89.6 128-102.4 200.533 25.6 0 46.933 25.6 46.933 51.2 0 29.867-21.333 51.2-51.2 51.2h-102.4c-29.867 0-51.2-21.333-51.2-51.2s21.333-51.2 51.2-51.2h4.267c12.8-102.4 59.733-200.533 132.267-273.067 85.333-85.333 204.8-136.533 324.267-136.533s238.933 46.933 324.267 136.533c72.533 72.533 119.467 170.667 132.267 273.067h4.267c29.867 0 51.2 21.333 51.2 51.2s-21.333 51.2-51.2 51.2zM409.6 755.2c0 55.467 46.933 102.4 102.4 102.4s102.4-46.933 102.4-102.4-46.933-102.4-102.4-102.4-102.4 46.933-102.4 102.4z" />
<glyph unicode="&#xe92b;" glyph-name="archive" d="M870.4 908.8h-716.8c-85.333 0-153.6-68.267-153.6-153.6 0-68.267 42.667-123.733 102.4-145.067v-469.333c0-42.667 17.067-81.067 46.933-106.667s64-46.933 106.667-46.933h512c42.667 0 81.067 17.067 106.667 46.933s46.933 68.267 46.933 106.667v469.333c59.733 21.333 102.4 76.8 102.4 145.067 0 85.333-68.267 153.6-153.6 153.6zM819.2 140.8c0-12.8-4.267-25.6-12.8-38.4-8.533-8.533-21.333-12.8-38.4-12.8h-512c-12.8 0-25.6 4.267-38.4 12.8-8.533 8.533-12.8 21.333-12.8 38.4v460.8h614.4v-460.8zM870.4 704h-716.8c-29.867 0-51.2 21.333-51.2 51.2s21.333 51.2 51.2 51.2h716.8c29.867 0 51.2-21.333 51.2-51.2s-21.333-51.2-51.2-51.2zM358.4 448c0 29.867 21.333 51.2 51.2 51.2h204.8c29.867 0 51.2-21.333 51.2-51.2s-21.333-51.2-51.2-51.2h-204.8c-29.867 0-51.2 21.333-51.2 51.2z" />
<glyph unicode="&#xe92c;" glyph-name="arrow-back-up" d="M345.6 853.333c25.6-25.6 25.6-59.733 0-85.333l-140.8-140.8h516.267c81.067 0 157.867-29.867 213.333-89.6 55.467-55.467 89.6-132.267 89.6-213.333s-29.867-157.867-89.6-213.333c-55.467-55.467-132.267-89.6-213.333-89.6h-59.733c-34.133 0-59.733 25.6-59.733 59.733s25.6 59.733 59.733 59.733h59.733c46.933 0 93.867 17.067 128 51.2s51.2 81.067 51.2 128-17.067 93.867-51.2 128c-34.133 34.133-81.067 51.2-128 51.2h-516.267l136.533-136.533c25.6-25.6 25.6-59.733 0-85.333s-59.733-25.6-85.333 0l-238.933 238.933c-25.6 25.6-25.6 59.733 0 85.333l238.933 238.933c25.6 34.133 64 34.133 89.6 12.8z" />
<glyph unicode="&#xe92d;" glyph-name="arrow-back" d="M601.6 810.667c0 34.133 25.6 59.733 59.733 59.733h59.733c81.067 0 157.867-29.867 213.333-89.6 55.467-55.467 89.6-132.267 89.6-213.333s-29.867-157.867-89.6-213.333c-55.467-55.467-132.267-89.6-213.333-89.6h-516.267l136.533-136.533c25.6-25.6 25.6-59.733 0-85.333s-59.733-25.6-85.333 0l-238.933 238.933c-12.8 12.8-17.067 25.6-17.067 42.667s4.267 29.867 17.067 42.667l238.933 238.933c25.6 25.6 59.733 25.6 85.333 0s25.6-59.733 0-85.333l-136.533-136.533h516.267c46.933 0 93.867 17.067 128 51.2s51.2 81.067 51.2 128-17.067 93.867-51.2 128c-34.133 34.133-81.067 51.2-128 51.2h-59.733c-34.133 8.533-59.733 34.133-59.733 68.267z" />
<glyph unicode="&#xe92e;" glyph-name="arrow-down" d="M512 960c34.133 0 64-29.867 64-64v-742.4l273.067 273.067c25.6 25.6 64 25.6 89.6 0s25.6-64 0-89.6l-384-384c-25.6-25.6-64-25.6-89.6 0l-384 384c-25.6 25.6-25.6 64 0 89.6s64 25.6 89.6 0l273.067-273.067v742.4c4.267 34.133 34.133 64 68.267 64z" />
<glyph unicode="&#xe92f;" glyph-name="arrow-forward-up" d="M678.4 853.333c25.6 25.6 59.733 25.6 85.333 0l238.933-238.933c25.6-25.6 25.6-59.733 0-85.333l-238.933-238.933c-25.6-25.6-59.733-25.6-85.333 0s-25.6 59.733 0 85.333l136.533 136.533h-512c-46.933 0-93.867-17.067-128-51.2s-51.2-81.067-51.2-128c0-46.933 17.067-93.867 51.2-128s81.067-51.2 128-51.2h59.733c34.133 0 59.733-25.6 59.733-59.733s-25.6-59.733-59.733-59.733h-59.733c-81.067 0-157.867 29.867-213.333 89.6-55.467 55.467-89.6 132.267-89.6 213.333s29.867 157.867 89.6 213.333c55.467 55.467 132.267 89.6 213.333 89.6h516.267l-136.533 136.533c-25.6 12.8-25.6 51.2-4.267 76.8z" />
<glyph unicode="&#xe930;" glyph-name="arrow-forward" d="M302.933 750.933c-46.933 0-93.867-17.067-128-51.2-34.133-38.4-55.467-85.333-55.467-132.267s17.067-93.867 51.2-128c34.133-34.133 81.067-51.2 128-51.2h516.267l-136.533 136.533c-25.6 25.6-25.6 59.733 0 85.333s59.733 25.6 85.333 0l238.933-238.933c25.6-25.6 25.6-59.733 0-85.333l-238.933-238.933c-25.6-25.6-59.733-25.6-85.333 0s-25.6 59.733 0 85.333l136.533 136.533h-512c-81.067 0-157.867 29.867-213.333 89.6-59.733 55.467-89.6 132.267-89.6 209.067 0 81.067 29.867 157.867 89.6 213.333 55.467 55.467 132.267 89.6 213.333 89.6h59.733c34.133 0 59.733-25.6 59.733-59.733s-25.6-59.733-59.733-59.733h-59.733z" />
<glyph unicode="&#xe931;" glyph-name="arrow-left" d="M494.933 878.933c25.6-25.6 25.6-64 0-89.6l-273.067-273.067h742.4c34.133 0 64-29.867 64-64s-29.867-64-64-64h-746.667l273.067-273.067c25.6-25.6 25.6-64 0-89.6s-64-25.6-89.6 0l-384 384c-25.6 25.6-25.6 64 0 89.6l384 384c25.6 17.067 68.267 17.067 93.867-4.267z" />
<glyph unicode="&#xe932;" glyph-name="arrow-long-down" d="M814.933 209.067l-256-256c-4.267-4.267-12.8-8.533-21.333-12.8-4.267 0-4.267-4.267-8.533-4.267-8.533-4.267-21.333-4.267-34.133 0-4.267 0-4.267 0-8.533 4.267-8.533 4.267-12.8 8.533-21.333 12.8l-256 256c-25.6 25.6-25.6 64 0 89.6s64 25.6 89.6 0l145.067-145.067v742.4c4.267 34.133 34.133 64 68.267 64s64-29.867 64-64v-742.4l145.067 145.067c25.6 25.6 64 25.6 89.6 0 29.867-21.333 29.867-64 4.267-89.6z" />
<glyph unicode="&#xe933;" glyph-name="arrow-long-left" d="M1024 448c0-34.133-29.867-64-64-64h-742.4l145.067-145.067c25.6-25.6 25.6-64 0-89.6s-64-25.6-89.6 0l-256 256c-4.267 4.267-8.533 12.8-12.8 21.333 0 4.267-4.267 4.267-4.267 8.533-4.267 8.533-4.267 21.333 0 34.133 0 4.267 0 4.267 4.267 8.533 4.267 8.533 8.533 12.8 12.8 21.333l256 256c25.6 21.333 68.267 21.333 93.867-4.267s25.6-64 0-89.6l-145.067-145.067h742.4c29.867-4.267 59.733-34.133 59.733-68.267z" />
<glyph unicode="&#xe934;" glyph-name="arrow-long-right" d="M1019.733 430.933c0-4.267 0-4.267-4.267-8.533-4.267-8.533-8.533-12.8-12.8-21.333l-256-256c-25.6-25.6-64-25.6-89.6 0s-25.6 64 0 89.6l145.067 145.067h-738.133c-34.133 4.267-64 34.133-64 68.267s29.867 64 64 64h742.4l-145.067 145.067c-25.6 25.6-25.6 64 0 89.6s64 25.6 89.6 0l256-256c4.267-4.267 8.533-12.8 12.8-21.333 0-4.267 4.267-4.267 4.267-8.533 0-8.533 0-17.067-4.267-29.867z" />
<glyph unicode="&#xe935;" glyph-name="arrow-long-up" d="M814.933 593.067c-25.6-25.6-64-25.6-89.6 0l-145.067 145.067v-742.4c0-34.133-29.867-64-64-64s-64 29.867-64 64v746.667l-149.333-149.333c-25.6-25.6-64-25.6-89.6 0-29.867 25.6-29.867 68.267-4.267 93.867l256 256c4.267 4.267 12.8 8.533 21.333 12.8 4.267 0 4.267 4.267 8.533 4.267 8.533 4.267 21.333 4.267 34.133 0 4.267 0 4.267 0 8.533-4.267 8.533-4.267 12.8-8.533 21.333-12.8l256-256c25.6-25.6 25.6-68.267 0-93.867z" />
<glyph unicode="&#xe936;" glyph-name="arrow-right" d="M529.067 878.933c25.6 25.6 64 25.6 89.6 0l384-384c12.8-12.8 17.067-29.867 17.067-46.933s-8.533-34.133-17.067-46.933l-384-384c-25.6-25.6-64-25.6-89.6 0s-25.6 64 0 89.6l273.067 273.067h-738.133c-34.133 4.267-64 34.133-64 68.267s29.867 64 64 64h742.4l-273.067 273.067c-25.6 25.6-25.6 68.267-4.267 93.867z" />
<glyph unicode="&#xe937;" glyph-name="arrow-up" d="M465.067 942.933c25.6 25.6 64 25.6 89.6 0l384-384c25.6-25.6 25.6-64 0-89.6s-64-25.6-89.6 0l-273.067 273.067v-742.4c0-34.133-29.867-64-64-64s-64 29.867-64 64v742.4l-273.067-273.067c-25.6-25.6-64-25.6-89.6 0-25.6 21.333-25.6 64-4.267 89.6l384 384z" />
<glyph unicode="&#xe938;" glyph-name="arrows-sort" d="M256 857.6c12.8 0 25.6-4.267 34.133-17.067l204.8-204.8c21.333-21.333 21.333-51.2 0-72.533s-51.2-21.333-72.533 0l-115.2 119.467v-593.067c0-29.867-21.333-51.2-51.2-51.2s-51.2 21.333-51.2 51.2v593.067l-119.467-115.2c-21.333-21.333-51.2-21.333-72.533 0s-21.333 51.2 0 72.533l204.8 204.8c12.8 8.533 25.6 12.8 38.4 12.8zM768 857.6c29.867 0 51.2-21.333 51.2-51.2v-593.067l119.467 119.467c21.333 21.333 51.2 21.333 72.533 0s21.333-51.2 0-72.533l-204.8-204.8c-8.533-8.533-21.333-17.067-34.133-17.067s-25.6 4.267-34.133 17.067l-204.8 204.8c-21.333 21.333-21.333 51.2 0 72.533s51.2 21.333 72.533 0l119.467-119.467v593.067c-8.533 29.867 12.8 51.2 42.667 51.2z" />
<glyph unicode="&#xe939;" glyph-name="award" d="M998.4 170.667l-162.133 277.333c21.333 46.933 34.133 98.133 34.133 153.6 0 200.533-162.133 358.4-358.4 358.4s-358.4-157.867-358.4-358.4c0-55.467 12.8-106.667 34.133-153.6l-162.133-277.333c-8.533-17.067-8.533-38.4 0-51.2 8.533-17.067 29.867-25.6 46.933-25.6l149.333 8.533 68.267-136.533c8.533-17.067 25.6-29.867 42.667-29.867s38.4 8.533 46.933 25.6l132.267 230.4 132.267-226.133c8.533-17.067 25.6-25.6 46.933-25.6 17.067 0 34.133 12.8 42.667 29.867l68.267 136.533 149.333-8.533c17.067 0 38.4 8.533 46.933 25.6 8.533 8.533 8.533 29.867 0 46.933zM512 857.6c140.8 0 256-115.2 256-256 0-46.933-12.8-89.6-34.133-128-42.667-76.8-128-128-221.867-128 0 0 0 0 0 0-93.867 0-179.2 51.2-221.867 128-21.333 38.4-34.133 81.067-34.133 128 0 140.8 115.2 256 256 256zM341.333 98.133l-38.4 81.067c-8.533 17.067-29.867 29.867-51.2 29.867l-89.6-4.267 89.6 153.6c46.933-51.2 106.667-85.333 179.2-102.4l-89.6-157.867zM772.267 209.067c-21.333 0-38.4-8.533-51.2-29.867l-38.4-81.067-85.333 153.6c68.267 17.067 132.267 51.2 179.2 102.4l89.6-153.6-93.867 8.533zM529.067 341.333c0 0 4.267 0 4.267-4.267 0 4.267-4.267 4.267-4.267 4.267zM512 345.6c4.267 0 12.8 0 17.067-4.267-4.267 0-12.8 4.267-17.067 4.267zM494.933 341.333c0 0-4.267 0-4.267-4.267 0 4.267 4.267 4.267 4.267 4.267zM512 345.6c-4.267 0-12.8 0-17.067-4.267 4.267 0 12.8 4.267 17.067 4.267z" />
<glyph unicode="&#xe93a;" glyph-name="bell-off" d="M802.133 708.267c-34.133 55.467-85.333 98.133-140.8 128-4.267 29.867-21.333 55.467-42.667 76.8-25.6 29.867-64 46.933-106.667 46.933s-81.067-17.067-106.667-46.933c-21.333-21.333-38.4-46.933-42.667-72.533-4.267-4.267-8.533-4.267-12.8-8.533-25.6-12.8-29.867-46.933-17.067-68.267 12.8-25.6 46.933-34.133 68.267-17.067 8.533 4.267 17.067 12.8 29.867 17.067 17.067 8.533 29.867 25.6 29.867 46.933 0 12.8 4.267 25.6 12.8 38.4 8.533 8.533 21.333 12.8 38.4 12.8s25.6-4.267 38.4-12.8c8.533-8.533 12.8-21.333 12.8-38.4 0-21.333 12.8-38.4 29.867-46.933 51.2-25.6 93.867-59.733 123.733-106.667s46.933-98.133 51.2-153.6v-153.6c0-29.867 21.333-51.2 51.2-51.2s51.2 21.333 51.2 51.2v157.867c-4.267 68.267-25.6 140.8-68.267 200.533zM1006.933 25.6l-917.333 917.333c-21.333 21.333-51.2 21.333-72.533 0s-21.333-51.2 0-72.533l192-192c-29.867-55.467-46.933-115.2-51.2-179.2v-153.6c-4.267-21.333-12.8-42.667-25.6-64s-29.867-38.4-51.2-46.933c-21.333-12.8-29.867-34.133-25.6-55.467s25.6-38.4 51.2-38.4h204.8c0-55.467 21.333-106.667 59.733-145.067s85.333-59.733 140.8-59.733 106.667 21.333 145.067 59.733 59.733 89.6 59.733 145.067h29.867l192-192c21.333-21.333 51.2-21.333 72.533 0 17.067 21.333 17.067 55.467-4.267 76.8zM584.533 68.267c-17.067-21.333-46.933-29.867-72.533-29.867s-51.2 12.8-72.533 29.867c-21.333 17.067-29.867 46.933-29.867 72.533h204.8c0-25.6-12.8-51.2-29.867-72.533zM221.867 243.2c17.067 29.867 25.6 64 29.867 98.133 0 0 0 4.267 0 4.267v153.6c0 38.4 12.8 72.533 25.6 106.667l362.667-362.667h-418.133z" />
<glyph unicode="&#xe93b;" glyph-name="bell-on" d="M947.2 234.667c-21.333 12.8-38.4 29.867-51.2 46.933s-21.333 42.667-25.6 64v153.6c-4.267 72.533-25.6 145.067-68.267 209.067-34.133 55.467-85.333 98.133-140.8 128-4.267 29.867-21.333 55.467-42.667 76.8-25.6 29.867-64 46.933-106.667 46.933s-81.067-17.067-106.667-46.933c-21.333-17.067-38.4-46.933-42.667-72.533-55.467-34.133-106.667-76.8-140.8-132.267-42.667-64-64-132.267-68.267-209.067v-153.6c-4.267-21.333-12.8-42.667-25.6-64s-29.867-38.4-51.2-46.933c-21.333-12.8-29.867-34.133-25.6-55.467s25.6-38.4 51.2-38.4h204.8c0-55.467 21.333-106.667 59.733-145.067s89.6-59.733 145.067-59.733 106.667 21.333 145.067 59.733c38.4 38.4 59.733 89.6 59.733 145.067h204.8c21.333 0 42.667 17.067 51.2 38.4 4.267 21.333-4.267 46.933-25.6 55.467zM584.533 68.267c-17.067-21.333-46.933-29.867-72.533-29.867s-51.2 12.8-72.533 29.867c-21.333 17.067-29.867 46.933-29.867 72.533h204.8c0-25.6-12.8-51.2-29.867-72.533zM221.867 243.2c17.067 29.867 25.6 64 29.867 98.133 0 0 0 4.267 0 4.267v153.6c4.267 55.467 21.333 106.667 51.2 153.6s72.533 81.067 123.733 106.667c4.267 0 4.267 0 8.533 4.267s12.8 8.533 17.067 17.067c4.267 8.533 8.533 17.067 8.533 29.867s4.267 25.6 12.8 34.133c8.533 8.533 21.333 12.8 38.4 12.8s25.6-4.267 38.4-12.8c8.533-8.533 12.8-21.333 12.8-38.4 0-21.333 12.8-38.4 29.867-46.933 51.2-25.6 93.867-59.733 123.733-106.667s46.933-98.133 51.2-153.6v-153.6c0 0 0-4.267 0-4.267 4.267-34.133 12.8-68.267 29.867-98.133h-576zM789.333 942.933c17.067 21.333 51.2 25.6 72.533 4.267 68.267-55.467 119.467-128 157.867-209.067 12.8-25.6 0-55.467-25.6-68.267s-55.467 0-68.267 25.6c-29.867 68.267-76.8 123.733-128 174.933-21.333 17.067-25.6 51.2-8.533 72.533zM234.667 942.933c17.067-21.333 17.067-55.467-4.267-72.533-59.733-46.933-102.4-106.667-132.267-174.933-12.8-25.6-42.667-34.133-68.267-25.6-25.6 12.8-38.4 42.667-25.6 68.267 38.4 81.067 89.6 153.6 157.867 209.067 21.333 17.067 51.2 17.067 72.533-4.267z" />
<glyph unicode="&#xe93c;" glyph-name="bell" d="M947.2 234.667c-21.333 12.8-38.4 29.867-51.2 46.933s-21.333 42.667-25.6 64v153.6c-4.267 72.533-25.6 145.067-68.267 209.067-34.133 55.467-85.333 98.133-140.8 128-4.267 29.867-21.333 55.467-42.667 76.8-25.6 29.867-64 46.933-106.667 46.933s-81.067-17.067-106.667-46.933c-21.333-17.067-38.4-46.933-42.667-72.533-55.467-34.133-106.667-76.8-140.8-132.267-42.667-64-64-132.267-68.267-209.067v-153.6c-4.267-21.333-12.8-42.667-25.6-64s-29.867-38.4-51.2-46.933c-21.333-12.8-29.867-34.133-25.6-55.467s25.6-38.4 51.2-38.4h204.8c0-55.467 21.333-106.667 59.733-145.067s89.6-59.733 145.067-59.733 106.667 21.333 145.067 59.733c38.4 38.4 59.733 89.6 59.733 145.067h204.8c21.333 0 42.667 17.067 51.2 38.4 4.267 21.333-4.267 46.933-25.6 55.467zM584.533 68.267c-17.067-21.333-46.933-29.867-72.533-29.867s-51.2 12.8-72.533 29.867c-21.333 17.067-29.867 46.933-29.867 72.533h204.8c0-25.6-12.8-51.2-29.867-72.533zM221.867 243.2c17.067 29.867 25.6 64 29.867 98.133 0 0 0 4.267 0 4.267v153.6c4.267 55.467 21.333 106.667 51.2 153.6s72.533 81.067 123.733 106.667c4.267 0 4.267 0 8.533 4.267s12.8 8.533 17.067 17.067c4.267 8.533 8.533 17.067 8.533 29.867s4.267 25.6 12.8 34.133c8.533 8.533 21.333 12.8 38.4 12.8s25.6-4.267 38.4-12.8c8.533-8.533 12.8-21.333 12.8-38.4 0-21.333 12.8-38.4 29.867-46.933 51.2-25.6 93.867-59.733 123.733-106.667s46.933-98.133 51.2-153.6v-153.6c0 0 0-4.267 0-4.267 4.267-34.133 12.8-68.267 29.867-98.133h-576z" />
<glyph unicode="&#xe93d;" glyph-name="bookmark-filled" d="M204.8 913.067c34.133 29.867 76.8 46.933 123.733 46.933h366.933c46.933 0 89.6-17.067 123.733-46.933s51.2-72.533 51.2-119.467v-806.4c0-17.067-8.533-34.133-25.6-42.667s-34.133-8.533-51.2 0l-281.6 157.867-281.6-157.867c-17.067-8.533-34.133-8.533-51.2 0s-25.6 25.6-25.6 42.667v806.4c0 46.933 17.067 89.6 51.2 119.467z" />
<glyph unicode="&#xe93e;" glyph-name="bookmark" d="M328.533 857.6c-21.333 0-38.4-8.533-51.2-21.333s-21.333-25.6-21.333-42.667v-716.8l230.4 128c17.067 8.533 34.133 8.533 51.2 0l230.4-128v716.8c0 17.067-8.533 29.867-21.333 42.667s-29.867 21.333-51.2 21.333h-366.933zM204.8 913.067c34.133 29.867 76.8 46.933 123.733 46.933h366.933c46.933 0 89.6-17.067 123.733-46.933s51.2-72.533 51.2-119.467v-806.4c0-17.067-8.533-34.133-25.6-42.667s-34.133-8.533-51.2 0l-281.6 157.867-281.6-157.867c-17.067-8.533-34.133-8.533-51.2 0s-25.6 25.6-25.6 42.667v806.4c0 46.933 17.067 89.6 51.2 119.467z" />
<glyph unicode="&#xe93f;" glyph-name="briefcase" d="M870.4 729.6h-102.4v51.2c0 42.667-17.067 81.067-42.667 106.667-29.867 29.867-68.267 46.933-106.667 46.933h-209.067c-38.4 0-81.067-17.067-110.933-46.933-25.6-25.6-42.667-64-42.667-106.667v-51.2h-102.4c-85.333 0-153.6-68.267-153.6-153.6v-460.8c0-85.333 68.267-153.6 153.6-153.6h716.8c85.333 0 153.6 68.267 153.6 153.6v460.8c0 85.333-68.267 153.6-153.6 153.6zM358.4 780.8c0 12.8 4.267 25.6 12.8 38.4 12.8 8.533 25.6 12.8 38.4 12.8h204.8c12.8 0 25.6-4.267 34.133-12.8s12.8-21.333 12.8-38.4v-51.2h-302.933v51.2zM921.6 115.2c0-29.867-21.333-51.2-51.2-51.2h-716.8c-29.867 0-51.2 21.333-51.2 51.2v174.933c128-55.467 268.8-81.067 409.6-81.067s281.6 29.867 409.6 81.067v-174.933zM921.6 405.333c-128-59.733-268.8-89.6-409.6-89.6s-281.6 29.867-409.6 89.6v170.667c0 29.867 21.333 51.2 51.2 51.2h716.8c29.867 0 51.2-21.333 51.2-51.2v-170.667zM512 473.6c29.867 0 51.2-21.333 51.2-51.2v0c0-29.867-21.333-51.2-51.2-51.2s-51.2 21.333-51.2 51.2v0c0 29.867 21.333 51.2 51.2 51.2z" />
<glyph unicode="&#xe940;" glyph-name="building" d="M994.133 930.133c-21.333 21.333-46.933 29.867-72.533 29.867h-512c-25.6 0-51.2-8.533-72.533-29.867s-29.867-46.933-29.867-72.533v-204.8c-17.067 0-25.6-4.267-34.133-17.067l-256-256c-12.8-8.533-17.067-17.067-17.067-34.133v-358.4c0-25.6 25.6-51.2 51.2-51.2h921.6c25.6 0 51.2 25.6 51.2 51.2v870.4c0 25.6-8.533 51.2-29.867 72.533zM512 38.4h-153.6v153.6c0 25.6-25.6 51.2-51.2 51.2s-51.2-25.6-51.2-51.2v-153.6h-153.6v285.867l204.8 204.8 204.8-204.8v-285.867zM921.6 38.4h-307.2v307.2c0 17.067-4.267 25.6-17.067 34.133l-187.733 192v285.867h512v-819.2zM614.4 704c0-29.867-25.6-51.2-51.2-51.2s-51.2 25.6-51.2 51.2 25.6 51.2 51.2 51.2c25.6 0 51.2-25.6 51.2-51.2zM819.2 704c0-29.867-25.6-51.2-51.2-51.2s-51.2 25.6-51.2 51.2 25.6 51.2 51.2 51.2 51.2-25.6 51.2-51.2zM819.2 499.2c0-29.867-25.6-51.2-51.2-51.2s-51.2 25.6-51.2 51.2c0 25.6 25.6 51.2 51.2 51.2s51.2-25.6 51.2-51.2zM819.2 294.4c0-29.867-25.6-51.2-51.2-51.2s-51.2 25.6-51.2 51.2 25.6 51.2 51.2 51.2 51.2-25.6 51.2-51.2z" />
<glyph unicode="&#xe941;" glyph-name="calculator1" d="M204.8 857.6c-29.867 0-51.2-21.333-51.2-51.2v-716.8c0-29.867 21.333-51.2 51.2-51.2h614.4c29.867 0 51.2 21.333 51.2 51.2v716.8c0 29.867-21.333 51.2-51.2 51.2h-614.4zM51.2 806.4c0 85.333 68.267 153.6 153.6 153.6h614.4c85.333 0 153.6-68.267 153.6-153.6v-716.8c0-85.333-68.267-153.6-153.6-153.6h-614.4c-85.333 0-153.6 68.267-153.6 153.6v716.8zM256 652.8c0 55.467 46.933 102.4 102.4 102.4h307.2c55.467 0 102.4-46.933 102.4-102.4v-51.2c0-55.467-46.933-102.4-102.4-102.4h-307.2c-55.467 0-102.4 46.933-102.4 102.4v51.2zM665.6 652.8h-307.2v-51.2h307.2v51.2zM307.2 396.8c29.867 0 51.2-21.333 51.2-51.2v0c0-29.867-21.333-51.2-51.2-51.2s-51.2 21.333-51.2 51.2v0c0 29.867 21.333 51.2 51.2 51.2zM512 396.8c29.867 0 51.2-21.333 51.2-51.2v0c0-29.867-21.333-51.2-51.2-51.2s-51.2 21.333-51.2 51.2v0c0 29.867 21.333 51.2 51.2 51.2zM716.8 396.8c29.867 0 51.2-21.333 51.2-51.2v0c0-29.867-21.333-51.2-51.2-51.2s-51.2 21.333-51.2 51.2v0c0 29.867 21.333 51.2 51.2 51.2zM307.2 243.2c29.867 0 51.2-21.333 51.2-51.2v0c0-29.867-21.333-51.2-51.2-51.2s-51.2 21.333-51.2 51.2v0c0 29.867 21.333 51.2 51.2 51.2zM512 243.2c29.867 0 51.2-21.333 51.2-51.2v0c0-29.867-21.333-51.2-51.2-51.2s-51.2 21.333-51.2 51.2v0c0 29.867 21.333 51.2 51.2 51.2zM716.8 243.2c29.867 0 51.2-21.333 51.2-51.2v0c0-29.867-21.333-51.2-51.2-51.2s-51.2 21.333-51.2 51.2v0c0 29.867 21.333 51.2 51.2 51.2z" />
<glyph unicode="&#xe942;" glyph-name="calendar-alt" d="M819.2 857.6h-51.2v51.2c0 29.867-21.333 51.2-51.2 51.2s-51.2-21.333-51.2-51.2v-51.2h-307.2v51.2c0 29.867-21.333 51.2-51.2 51.2s-51.2-21.333-51.2-51.2v-51.2h-51.2c-85.333 0-153.6-68.267-153.6-153.6v-614.4c0-85.333 68.267-153.6 153.6-153.6h614.4c85.333 0 153.6 68.267 153.6 153.6v614.4c0 85.333-68.267 153.6-153.6 153.6zM870.4 89.6c0-29.867-21.333-51.2-51.2-51.2h-614.4c-29.867 0-51.2 21.333-51.2 51.2v358.4h716.8v-358.4zM870.4 550.4h-716.8v153.6c0 29.867 21.333 51.2 51.2 51.2h51.2v-51.2c0-29.867 21.333-51.2 51.2-51.2s51.2 21.333 51.2 51.2v51.2h307.2v-51.2c0-29.867 21.333-51.2 51.2-51.2s51.2 21.333 51.2 51.2v51.2h51.2c29.867 0 51.2-21.333 51.2-51.2v-153.6z" />
<glyph unicode="&#xe943;" glyph-name="calendar" d="M307.2 960c29.867 0 51.2-21.333 51.2-51.2v-51.2h307.2v51.2c0 29.867 21.333 51.2 51.2 51.2s51.2-21.333 51.2-51.2v-51.2h51.2c85.333 0 153.6-68.267 153.6-153.6v-614.4c0-85.333-68.267-153.6-153.6-153.6h-614.4c-85.333 0-153.6 68.267-153.6 153.6v614.4c0 85.333 68.267 153.6 153.6 153.6h51.2v51.2c0 29.867 21.333 51.2 51.2 51.2zM256 755.2h-51.2c-29.867 0-51.2-21.333-51.2-51.2v-153.6h716.8v153.6c0 29.867-21.333 51.2-51.2 51.2h-51.2v-51.2c0-29.867-21.333-51.2-51.2-51.2s-51.2 21.333-51.2 51.2v51.2h-307.2v-51.2c0-29.867-21.333-51.2-51.2-51.2s-51.2 21.333-51.2 51.2v51.2zM870.4 448h-716.8v-358.4c0-29.867 21.333-51.2 51.2-51.2h614.4c29.867 0 51.2 21.333 51.2 51.2v358.4zM256 294.4c0 29.867 21.333 51.2 51.2 51.2h102.4c29.867 0 51.2-21.333 51.2-51.2v-102.4c0-29.867-21.333-51.2-51.2-51.2h-102.4c-29.867 0-51.2 21.333-51.2 51.2v102.4z" />
<glyph unicode="&#xe944;" glyph-name="camera-plus" d="M512 473.6c-55.467 0-102.4-46.933-102.4-102.4s46.933-102.4 102.4-102.4 102.4 46.933 102.4 102.4c0 55.467-46.933 102.4-102.4 102.4zM307.2 371.2c0 115.2 89.6 204.8 204.8 204.8s204.8-89.6 204.8-204.8c0-115.2-89.6-204.8-204.8-204.8s-204.8 89.6-204.8 204.8zM337.067 853.333c21.333 17.067 46.933 29.867 72.533 29.867h102.4c29.867 0 51.2-21.333 51.2-51.2s-21.333-51.2-51.2-51.2h-102.4c0-42.667-17.067-81.067-46.933-106.667-25.6-29.867-64-46.933-106.667-46.933h-102.4c-12.8 0-25.6-4.267-34.133-17.067-12.8-8.533-17.067-21.333-17.067-34.133v-460.8c0-12.8 4.267-25.6 17.067-34.133 8.533-12.8 21.333-17.067 34.133-17.067h716.8c12.8 0 25.6 4.267 34.133 17.067 8.533 8.533 17.067 21.333 17.067 34.133v358.4c0 29.867 21.333 51.2 51.2 51.2s51.2-21.333 51.2-51.2v-358.4c0-42.667-17.067-81.067-46.933-106.667-29.867-29.867-68.267-46.933-106.667-46.933h-716.8c-42.667 0-81.067 17.067-106.667 46.933-29.867 25.6-46.933 64-46.933 106.667v460.8c0 42.667 17.067 81.067 46.933 106.667 29.867 29.867 68.267 46.933 106.667 46.933h102.4c12.8 0 25.6 4.267 34.133 17.067 8.533 8.533 17.067 21.333 17.067 34.133 0 25.6 12.8 51.2 29.867 72.533zM1024 729.6c0-29.867-21.333-51.2-51.2-51.2h-102.4v-102.4c0-29.867-21.333-51.2-51.2-51.2s-51.2 21.333-51.2 51.2v102.4h-102.4c-29.867 0-51.2 21.333-51.2 51.2s21.333 51.2 51.2 51.2h102.4v102.4c0 29.867 21.333 51.2 51.2 51.2s51.2-21.333 51.2-51.2v-102.4h102.4c29.867 0 51.2-21.333 51.2-51.2z" />
<glyph unicode="&#xe945;" glyph-name="car" d="M106.667 797.867c8.533 17.067 25.6 29.867 42.667 29.867h465.067c12.8 0 29.867-8.533 38.4-17.067l192-251.733h29.867c38.4 0 76.8-17.067 106.667-46.933s42.667-68.267 42.667-106.667v-213.333c0-12.8-4.267-25.6-12.8-34.133s-21.333-12.8-34.133-12.8h-64c-17.067-59.733-76.8-106.667-145.067-106.667s-123.733 46.933-145.067 106.667h-226.133c-17.067-59.733-76.8-106.667-145.067-106.667s-123.733 46.933-145.067 106.667h-59.733c-12.8 0-25.6 4.267-34.133 12.8s-12.8 21.333-12.8 34.133v324.267c0 4.267 0 12.8 4.267 17.067l102.4 264.533zM110.933 238.933c17.067 59.733 76.8 106.667 145.067 106.667s123.733-46.933 145.067-106.667h230.4c17.067 59.733 76.8 106.667 145.067 106.667s123.733-46.933 145.067-106.667h17.067v166.4c0 17.067-8.533 34.133-17.067 42.667-12.8 12.8-25.6 17.067-38.4 17.067h-789.333v-230.4h17.067zM115.2 558.933h349.867v174.933h-281.6l-68.267-174.933zM558.933 733.867v-174.933h170.667l-136.533 174.933h-34.133zM251.733 251.733c-29.867 0-55.467-25.6-55.467-59.733s25.6-59.733 55.467-59.733 55.467 25.6 55.467 59.733c4.267 34.133-25.6 59.733-55.467 59.733zM772.267 251.733c-29.867 0-55.467-25.6-55.467-59.733s25.6-59.733 55.467-59.733c29.867 0 55.467 25.6 55.467 59.733s-25.6 59.733-55.467 59.733z" />
<glyph unicode="&#xe946;" glyph-name="cart" d="M989.867 699.733c-8.533 8.533-21.333 17.067-38.4 17.067h-699.733l-34.133 200.533c-4.267 25.6-21.333 42.667-46.933 42.667h-98.133c-25.6 0-46.933-21.333-46.933-46.933s21.333-46.933 46.933-46.933h55.467l29.867-192v-4.267c0-8.533 0-12.8 4.267-21.333l59.733-328.533c0-4.267 0-4.267 4.267-8.533 8.533-42.667 38.4-76.8 72.533-98.133 0 0 0 0 0 0-46.933-25.6-81.067-72.533-81.067-128 0-81.067 64-145.067 145.067-145.067s145.067 64 145.067 145.067c0 38.4-12.8 72.533-38.4 98.133h170.667c-21.333-25.6-38.4-59.733-38.4-98.133 0-81.067 64-145.067 145.067-145.067s145.067 64 145.067 145.067c0 46.933-21.333 89.6-55.467 115.2 8.533 4.267 17.067 8.533 25.6 17.067 34.133 21.333 64 55.467 76.8 98.133 0 4.267 0 4.267 4.267 8.533l46.933 341.333c12.8 8.533 8.533 21.333 0 34.133zM366.933 34.133c-25.6 0-46.933 21.333-46.933 46.933s21.333 46.933 46.933 46.933 46.933-21.333 46.933-46.933-21.333-46.933-46.933-46.933zM755.2 34.133c-25.6 0-46.933 21.333-46.933 46.933s21.333 46.933 46.933 46.933 46.933-21.333 46.933-46.933-21.333-46.933-46.933-46.933zM853.333 337.067c-8.533-17.067-21.333-34.133-38.4-46.933s-38.4-17.067-59.733-17.067h-345.6c-21.333 0-42.667 4.267-59.733 17.067s-29.867 25.6-38.4 46.933l-42.667 281.6h627.2l-42.667-281.6z" />
<glyph unicode="&#xe947;" glyph-name="cash" d="M627.2 401.067c-38.4 0-68.267-29.867-68.267-68.267s29.867-68.267 68.267-68.267c38.4 0 68.267 29.867 68.267 68.267 4.267 38.4-29.867 68.267-68.267 68.267zM465.067 332.8c0 89.6 72.533 162.133 162.133 162.133s162.133-72.533 162.133-162.133-72.533-162.133-162.133-162.133-162.133 72.533-162.133 162.133zM870.4 635.733h-34.133v85.333c0 38.4-17.067 76.8-46.933 106.667-29.867 25.6-68.267 42.667-106.667 42.667h-529.067c-38.4 0-81.067-17.067-106.667-42.667-29.867-29.867-46.933-68.267-46.933-110.933v-307.2c0-38.4 17.067-76.8 46.933-106.667 29.867-25.6 68.267-42.667 106.667-42.667h34.133v-85.333c0-85.333 68.267-149.333 153.6-149.333h533.333c81.067 0 153.6 64 153.6 149.333v307.2c-4.267 85.333-72.533 153.6-157.867 153.6zM187.733 486.4v-132.267h-34.133c-17.067 0-34.133 8.533-42.667 17.067-12.8 12.8-17.067 25.6-17.067 38.4v307.2c0 12.8 4.267 29.867 17.067 38.4s25.6 17.067 42.667 17.067h529.067c17.067 0 34.133-8.533 42.667-17.067 12.8-12.8 17.067-25.6 17.067-38.4v-85.333h-401.067c-85.333 4.267-153.6-64-153.6-145.067zM930.133 179.2c0-29.867-25.6-55.467-59.733-55.467h-529.067c-34.133 0-59.733 25.6-59.733 55.467v307.2c0 29.867 25.6 55.467 59.733 55.467h533.333c34.133 0 59.733-25.6 59.733-55.467v-307.2z" />
<glyph unicode="&#xe948;" glyph-name="chat-circle" d="M533.333 806.4c98.133-4.267 192-38.4 268.8-98.133 72.533-59.733 115.2-140.8 123.733-226.133s-17.067-170.667-76.8-238.933c-59.733-72.533-145.067-119.467-243.2-140.8s-200.533-8.533-290.133 34.133c-12.8 4.267-21.333 8.533-34.133 4.267l-153.6-34.133 38.4 115.2c4.267 17.067 4.267 29.867-4.267 42.667-51.2 72.533-68.267 157.867-51.2 243.2s68.267 162.133 145.067 217.6c76.8 55.467 174.933 85.333 277.333 81.067zM46.933-12.8c4.267 0 8.533 0 12.8 0l221.867 46.933c102.4-46.933 221.867-59.733 337.067-38.4 119.467 25.6 226.133 85.333 302.933 174.933 72.533 89.6 110.933 200.533 98.133 315.733-12.8 110.933-68.267 217.6-157.867 294.4s-204.8 119.467-328.533 123.733c-123.733 4.267-243.2-29.867-341.333-98.133-93.867-64-162.133-162.133-183.467-273.067-21.333-102.4 0-209.067 51.2-298.667l-59.733-174.933c0-8.533 0-12.8 0-17.067s0-12.8 4.267-17.067c4.267-8.533 4.267-12.8 8.533-17.067s8.533-8.533 17.067-12.8c4.267-4.267 12.8-8.533 17.067-8.533z" />
<glyph unicode="&#xe949;" glyph-name="chat-left" d="M226.133 844.8c-29.867 0-59.733-12.8-81.067-34.133s-29.867-51.2-29.867-81.067v-601.6l132.267 132.267c12.8 8.533 25.6 17.067 38.4 17.067h512c29.867 0 59.733 12.8 81.067 34.133s34.133 51.2 34.133 81.067v341.333c0 29.867-12.8 59.733-34.133 81.067s-51.2 34.133-81.067 34.133h-571.733zM68.267 891.733c42.667 42.667 102.4 68.267 162.133 68.267h567.467c59.733 0 119.467-25.6 162.133-68.267s68.267-102.4 68.267-162.133v-341.333c0-59.733-25.6-119.467-68.267-162.133s-102.4-68.267-162.133-68.267h-490.667l-209.067-209.067c-17.067-17.067-42.667-21.333-64-12.8-21.333 12.8-34.133 29.867-34.133 55.467v738.133c0 59.733 25.6 119.467 68.267 162.133z" />
<glyph unicode="&#xe94a;" glyph-name="chat-right" d="M797.867 844.8c29.867 0 59.733-12.8 81.067-34.133s34.133-51.2 34.133-81.067v-601.6l-132.267 132.267c-8.533 8.533-25.6 17.067-38.4 17.067h-512c-29.867 0-59.733 12.8-81.067 34.133s-34.133 51.2-34.133 81.067v341.333c0 29.867 12.8 59.733 34.133 81.067 17.067 17.067 46.933 29.867 76.8 29.867h571.733zM955.733 891.733c-42.667 42.667-102.4 68.267-162.133 68.267h-567.467c-59.733 0-119.467-25.6-162.133-68.267-38.4-42.667-64-102.4-64-162.133v-341.333c0-59.733 25.6-119.467 68.267-162.133s102.4-68.267 162.133-68.267h486.4l209.067-209.067c17.067-17.067 42.667-21.333 64-12.8s34.133 29.867 34.133 51.2v742.4c0 59.733-25.6 119.467-68.267 162.133z" />
<glyph unicode="&#xe94b;" glyph-name="check-circle" d="M512 857.6c-226.133 0-409.6-183.467-409.6-409.6s183.467-409.6 409.6-409.6c226.133 0 409.6 183.467 409.6 409.6s-183.467 409.6-409.6 409.6zM0 448c0 281.6 230.4 512 512 512s512-230.4 512-512c0-281.6-230.4-512-512-512s-512 230.4-512 512zM699.733 584.533c21.333-21.333 21.333-51.2 0-72.533l-204.8-204.8c-8.533-8.533-21.333-17.067-34.133-17.067s-25.6 4.267-34.133 17.067l-102.4 102.4c-21.333 21.333-21.333 51.2 0 72.533s51.2 21.333 72.533 0l68.267-68.267 170.667 170.667c12.8 21.333 46.933 21.333 64 0z" />
<glyph unicode="&#xe94c;" glyph-name="check" d="M1006.933 793.6c25.6-25.6 25.6-59.733 0-85.333l-601.6-605.867c-25.6-25.6-59.733-25.6-85.333 0l-302.933 302.933c-25.6 25.6-25.6 59.733 0 85.333s59.733 25.6 85.333 0l260.267-260.267 558.933 563.2c21.333 21.333 59.733 21.333 85.333 0z" />
<glyph unicode="&#xe94d;" glyph-name="checkbox-checked-alt" d="M1006.933 827.733c21.333-21.333 21.333-59.733 0-81.067l-456.533-452.267c-8.533-12.8-21.333-17.067-38.4-17.067s-29.867 4.267-38.4 17.067l-170.667 170.667c-21.333 21.333-21.333 59.733 0 81.067s59.733 21.333 81.067 0l132.267-132.267 413.867 413.867c17.067 25.6 55.467 25.6 76.8 0zM170.667 844.8c-17.067 0-29.867-4.267-38.4-17.067-12.8-8.533-17.067-21.333-17.067-38.4v-682.667c0-17.067 4.267-29.867 17.067-38.4s25.6-17.067 38.4-17.067h682.667c17.067 0 29.867 4.267 38.4 17.067s17.067 25.6 17.067 38.4v341.333c0 29.867 25.6 55.467 55.467 55.467s55.467-25.6 55.467-55.467v-341.333c0-46.933-17.067-89.6-51.2-119.467-25.6-34.133-68.267-51.2-115.2-51.2h-682.667c-46.933 0-89.6 17.067-119.467 51.2-34.133 29.867-51.2 72.533-51.2 119.467v682.667c0 46.933 17.067 89.6 51.2 119.467s72.533 51.2 119.467 51.2h512c29.867 0 55.467-25.6 55.467-55.467s-25.6-59.733-55.467-59.733h-512z" />
<glyph unicode="&#xe94e;" glyph-name="checkbox-checked" d="M170.667 844.8c-29.867 0-55.467-25.6-55.467-55.467v-682.667c0-29.867 25.6-55.467 55.467-55.467h682.667c29.867 0 55.467 25.6 55.467 55.467v682.667c0 29.867-25.6 55.467-55.467 55.467h-682.667zM0 789.333c0 93.867 76.8 170.667 170.667 170.667h682.667c93.867 0 170.667-76.8 170.667-170.667v-682.667c0-93.867-76.8-170.667-170.667-170.667h-682.667c-93.867 0-170.667 76.8-170.667 170.667v682.667zM721.067 601.6c21.333-21.333 21.333-59.733 0-81.067l-226.133-226.133c-8.533-12.8-25.6-17.067-38.4-17.067s-29.867 4.267-38.4 17.067l-115.2 115.2c-21.333 21.333-21.333 59.733 0 81.067s59.733 21.333 81.067 0l72.533-72.533 187.733 187.733c21.333 17.067 55.467 17.067 76.8-4.267z" />
<glyph unicode="&#xe94f;" glyph-name="checkbox" d="M170.667 844.8c-29.867 0-55.467-25.6-55.467-55.467v-682.667c0-29.867 25.6-55.467 55.467-55.467h682.667c29.867 0 55.467 25.6 55.467 55.467v682.667c0 29.867-25.6 55.467-55.467 55.467h-682.667zM0 789.333c0 93.867 76.8 170.667 170.667 170.667h682.667c93.867 0 170.667-76.8 170.667-170.667v-682.667c0-93.867-76.8-170.667-170.667-170.667h-682.667c-93.867 0-170.667 76.8-170.667 170.667v682.667z" />
<glyph unicode="&#xe950;" glyph-name="chevron-down" d="M21.333 721.067c29.867 25.6 76.8 25.6 102.4 0l388.267-388.267 388.267 388.267c29.867 29.867 76.8 29.867 102.4 0 29.867-29.867 29.867-76.8 0-102.4l-439.467-443.733c-29.867-29.867-76.8-29.867-102.4 0l-439.467 439.467c-29.867 29.867-29.867 76.8 0 106.667z" />
<glyph unicode="&#xe951;" glyph-name="chevron-left" d="M785.067 938.667c29.867-29.867 29.867-76.8 0-102.4l-388.267-388.267 388.267-388.267c29.867-29.867 29.867-76.8 0-102.4-29.867-29.867-76.8-29.867-102.4 0l-443.733 439.467c-29.867 29.867-29.867 76.8 0 102.4l439.467 439.467c29.867 29.867 76.8 29.867 106.667 0z" />
<glyph unicode="&#xe952;" glyph-name="chevron-right" d="M238.933 938.667c29.867 29.867 76.8 29.867 102.4 0l439.467-439.467c29.867-29.867 29.867-76.8 0-102.4l-435.2-439.467c-29.867-29.867-76.8-29.867-102.4 0-29.867 29.867-29.867 76.8 0 102.4l388.267 388.267-392.533 388.267c-25.6 25.6-25.6 72.533 0 102.4z" />
<glyph unicode="&#xe953;" glyph-name="chevron-up" d="M460.8 721.067c29.867 29.867 76.8 29.867 102.4 0l439.467-439.467c29.867-29.867 29.867-76.8 0-102.4-29.867-29.867-76.8-29.867-102.4 0l-388.267 384-388.267-388.267c-29.867-29.867-76.8-29.867-102.4 0-29.867 29.867-29.867 76.8 0 102.4l439.467 443.733z" />
<glyph unicode="&#xe954;" glyph-name="chevrons-left" d="M529.067 896c29.867-29.867 29.867-81.067 0-110.933l-337.067-337.067 337.067-337.067c29.867-29.867 29.867-81.067 0-110.933s-81.067-29.867-110.933 0l-392.533 392.533c-29.867 29.867-29.867 81.067 0 110.933l392.533 392.533c29.867 34.133 81.067 34.133 110.933 0zM1002.667 896c29.867-29.867 29.867-81.067 0-110.933l-341.333-337.067 337.067-337.067c29.867-29.867 29.867-81.067 0-110.933s-81.067-29.867-110.933 0l-392.533 392.533c-12.8 12.8-21.333 34.133-21.333 55.467s8.533 42.667 21.333 55.467l392.533 392.533c34.133 34.133 81.067 34.133 115.2 0z" />
<glyph unicode="&#xe955;" glyph-name="chevrons-right" d="M21.333 896c29.867 29.867 81.067 29.867 110.933 0l392.533-392.533c12.8-12.8 21.333-34.133 21.333-55.467s-8.533-42.667-21.333-55.467l-392.533-392.533c-29.867-29.867-81.067-29.867-110.933 0s-29.867 81.067 0 110.933l341.333 337.067-341.333 337.067c-29.867 29.867-29.867 81.067 0 110.933zM494.933 896c29.867 29.867 81.067 29.867 110.933 0l392.533-392.533c17.067-12.8 25.6-34.133 25.6-55.467s-8.533-42.667-21.333-55.467l-392.533-392.533c-29.867-29.867-81.067-29.867-110.933 0s-29.867 81.067 0 110.933l337.067 337.067-337.067 337.067c-34.133 29.867-34.133 81.067-4.267 110.933z" />
<glyph unicode="&#xe956;" glyph-name="clock" d="M512 857.6c-226.133 0-409.6-183.467-409.6-409.6s183.467-409.6 409.6-409.6c226.133 0 409.6 183.467 409.6 409.6s-183.467 409.6-409.6 409.6zM0 448c0 281.6 230.4 512 512 512s512-230.4 512-512c0-281.6-230.4-512-512-512s-512 230.4-512 512zM512 755.2c29.867 0 51.2-21.333 51.2-51.2v-234.667l136.533-136.533c21.333-21.333 21.333-51.2 0-72.533s-51.2-21.333-72.533 0l-153.6 153.6c-8.533 8.533-17.067 21.333-17.067 34.133v256c4.267 29.867 25.6 51.2 55.467 51.2z" />
<glyph unicode="&#xe957;" glyph-name="cloud-download" d="M460.8 878.933c38.4 8.533 76.8 8.533 115.2 0s76.8-21.333 106.667-42.667c34.133-21.333 59.733-46.933 85.333-76.8 25.6-25.6 42.667-59.733 46.933-98.133 4.267-17.067 4.267-34.133 4.267-55.467 51.2 0 102.4-21.333 140.8-59.733s59.733-89.6 59.733-145.067-21.333-106.667-59.733-145.067c-38.4-38.4-89.6-59.733-145.067-59.733-25.6 0-46.933 21.333-46.933 46.933s21.333 46.933 46.933 46.933c29.867 0 59.733 12.8 81.067 34.133s34.133 51.2 34.133 81.067-12.8 59.733-34.133 81.067c-21.333 21.333-51.2 34.133-81.067 34.133h-46.933c-12.8 0-25.6 4.267-34.133 17.067-8.533 4.267-8.533 21.333-8.533 34.133 4.267 21.333 4.267 46.933 0 72.533-4.267 21.333-17.067 46.933-29.867 68.267-12.8 17.067-34.133 34.133-55.467 46.933s-51.2 25.6-76.8 29.867c-29.867 4.267-55.467 4.267-85.333 0s-55.467-12.8-76.8-29.867-81.067-68.267-89.6-115.2c-4.267-21.333-25.6-38.4-46.933-38.4-38.4 4.267-76.8-8.533-106.667-29.867s-51.2-55.467-59.733-89.6c-8.533-34.133-4.267-72.533 12.8-102.4 17.067-34.133 42.667-59.733 81.067-72.533 21.333-12.8 29.867-38.4 21.333-64-8.533-21.333-38.4-34.133-59.733-25.6-55.467 25.6-98.133 64-123.733 115.2s-34.133 110.933-21.333 166.4c12.8 55.467 46.933 106.667 93.867 140.8 38.4 25.6 81.067 42.667 128 46.933 21.333 64 68.267 115.2 123.733 149.333 29.867 21.333 68.267 34.133 106.667 38.4zM665.6 162.133l-136.533-136.533c-4.267-4.267-8.533-8.533-12.8-8.533s-4.267 0-8.533 0c-8.533-4.267-17.067-4.267-21.333 0-4.267 0-4.267 0-8.533 0-4.267 4.267-8.533 4.267-12.8 8.533l-136.533 136.533c-17.067 17.067-17.067 46.933 0 64s46.933 17.067 64 0l59.733-59.733v302.933c0 25.6 21.333 46.933 46.933 46.933s46.933-21.333 46.933-46.933v-302.933l59.733 59.733c17.067 17.067 46.933 17.067 64 0 12.8-17.067 12.8-46.933-4.267-64z" />
<glyph unicode="&#xe958;" glyph-name="cloud-upload" d="M558.933 768c-29.867 4.267-55.467 4.267-85.333 0s-55.467-12.8-76.8-29.867-76.8-68.267-89.6-115.2c-4.267-21.333-21.333-38.4-42.667-38.4-46.933 0-89.6-17.067-119.467-46.933s-51.2-72.533-51.2-115.2c0-42.667 17.067-81.067 51.2-115.2 29.867-29.867 76.8-46.933 119.467-46.933 25.6 0 46.933-21.333 46.933-46.933s-21.333-46.933-46.933-46.933c-68.267 0-136.533 25.6-183.467 72.533-51.2 51.2-81.067 115.2-81.067 183.467s29.867 132.267 76.8 179.2c42.667 38.4 93.867 64 149.333 72.533 21.333 59.733 64 110.933 123.733 145.067 34.133 21.333 68.267 34.133 110.933 38.4 38.4 8.533 76.8 8.533 115.2 0s76.8-21.333 106.667-42.667c34.133-21.333 64-46.933 85.333-76.8s38.4-64 46.933-102.4c4.267-17.067 4.267-38.4 4.267-55.467 51.2 0 102.4-21.333 140.8-59.733s59.733-89.6 59.733-145.067c0-55.467-21.333-106.667-59.733-145.067s-89.6-59.733-145.067-59.733h-46.933c-25.6 0-46.933 21.333-46.933 46.933s21.333 46.933 46.933 46.933h46.933c29.867 0 59.733 12.8 81.067 34.133s34.133 51.2 34.133 81.067c0 29.867-12.8 59.733-34.133 81.067s-51.2 34.133-81.067 34.133h-46.933c-12.8 0-25.6 4.267-34.133 17.067-8.533 8.533-12.8 25.6-8.533 38.4 4.267 21.333 4.267 46.933 0 72.533-4.267 21.333-17.067 46.933-29.867 68.267-17.067 21.333-34.133 38.4-59.733 51.2-21.333 12.8-46.933 21.333-76.8 25.6zM665.6 320c-17.067-17.067-46.933-17.067-64 0l-59.733 59.733v-302.933c0-25.6-21.333-46.933-46.933-46.933s-46.933 21.333-46.933 46.933v302.933l-59.733-59.733c-17.067-17.067-46.933-17.067-64 0s-17.067 46.933 0 64l136.533 136.533c4.267 4.267 8.533 8.533 12.8 8.533s4.267 0 8.533 0 8.533 0 12.8 0c4.267 0 8.533 0 12.8 0s4.267 0 8.533 0c4.267-4.267 8.533-4.267 12.8-8.533l136.533-136.533c17.067-12.8 17.067-42.667 0-64z" />
<glyph unicode="&#xe959;" glyph-name="corner-down-left" d="M955.733 960c38.4 0 68.267-29.867 68.267-68.267v-409.6c0-72.533-29.867-140.8-81.067-192s-119.467-81.067-192-81.067h-516.267l157.867-157.867c25.6-25.6 25.6-68.267 0-98.133-25.6-25.6-68.267-25.6-98.133 0l-273.067 273.067c-12.8 17.067-21.333 34.133-21.333 51.2s8.533 34.133 21.333 46.933l273.067 273.067c25.6 25.6 68.267 25.6 98.133 0 25.6-25.6 25.6-68.267 0-98.133l-157.867-157.867h516.267c34.133 0 72.533 12.8 98.133 38.4s38.4 59.733 38.4 98.133v413.867c0 38.4 29.867 68.267 68.267 68.267z" />
<glyph unicode="&#xe95a;" glyph-name="corner-down-right" d="M68.267 960c38.4 0 68.267-29.867 68.267-68.267v-409.6c0-34.133 12.8-72.533 38.4-98.133s59.733-38.4 98.133-38.4h516.267l-157.867 157.867c-25.6 25.6-25.6 68.267 0 98.133 25.6 25.6 68.267 25.6 98.133 0l273.067-273.067c12.8-12.8 21.333-29.867 21.333-46.933s-8.533-34.133-21.333-46.933l-273.067-273.067c-25.6-25.6-68.267-25.6-98.133 0-25.6 25.6-25.6 68.267 0 98.133l157.867 157.867h-516.267c-72.533 0-140.8 29.867-192 81.067-51.2 42.667-81.067 110.933-81.067 183.467v409.6c0 38.4 29.867 68.267 68.267 68.267z" />
<glyph unicode="&#xe95b;" glyph-name="corner-left-down" d="M354.133 878.933c51.2 51.2 119.467 81.067 192 81.067h409.6c38.4 0 68.267-29.867 68.267-68.267s-29.867-68.267-68.267-68.267h-409.6c-34.133 0-72.533-12.8-98.133-38.4s-38.4-64-38.4-98.133v-516.267l157.867 157.867c25.6 25.6 68.267 25.6 98.133 0 25.6-25.6 25.6-68.267 0-98.133l-273.067-273.067c-25.6-25.6-68.267-25.6-98.133 0l-273.067 273.067c-25.6 25.6-25.6 68.267 0 98.133 25.6 25.6 68.267 25.6 98.133 0l157.867-157.867v516.267c-4.267 72.533 25.6 140.8 76.8 192z" />
<glyph unicode="&#xe95c;" glyph-name="corner-left-up" d="M341.333 960c17.067 0 34.133-8.533 46.933-21.333l273.067-273.067c25.6-25.6 25.6-68.267 0-98.133-25.6-25.6-68.267-25.6-98.133 0l-153.6 157.867v-516.267c0-34.133 12.8-72.533 38.4-98.133s59.733-38.4 98.133-38.4h409.6c38.4 0 68.267-29.867 68.267-68.267s-29.867-68.267-68.267-68.267h-409.6c-72.533 0-140.8 29.867-192 81.067s-81.067 119.467-81.067 192v516.267l-157.867-153.6c-25.6-25.6-68.267-25.6-98.133 0-25.6 25.6-25.6 68.267 0 98.133l273.067 273.067c17.067 8.533 34.133 17.067 51.2 17.067z" />
<glyph unicode="&#xe95d;" glyph-name="corner-right-down" d="M0 891.733c0 38.4 29.867 68.267 68.267 68.267h409.6c72.533 0 140.8-29.867 192-81.067s81.067-119.467 81.067-192v-516.267l157.867 157.867c25.6 25.6 68.267 25.6 98.133 0 25.6-25.6 25.6-68.267 0-98.133l-273.067-273.067c-17.067-12.8-34.133-21.333-51.2-21.333s-34.133 8.533-46.933 21.333l-273.067 273.067c-25.6 25.6-25.6 68.267 0 98.133 25.6 25.6 68.267 25.6 98.133 0l157.867-157.867v516.267c0 34.133-12.8 72.533-38.4 98.133s-59.733 38.4-98.133 38.4h-413.867c-38.4 0-68.267 29.867-68.267 68.267z" />
<glyph unicode="&#xe95e;" glyph-name="corner-right-up" d="M682.667 960c17.067 0 34.133-8.533 46.933-21.333l273.067-273.067c25.6-25.6 25.6-68.267 0-98.133-25.6-25.6-68.267-25.6-98.133 0l-157.867 157.867v-516.267c0-72.533-29.867-140.8-81.067-192s-119.467-81.067-192-81.067h-405.333c-38.4 0-68.267 29.867-68.267 68.267s29.867 68.267 68.267 68.267h409.6c34.133 0 72.533 12.8 98.133 38.4s38.4 59.733 38.4 98.133v516.267l-157.867-157.867c-25.6-25.6-68.267-25.6-98.133 0-25.6 25.6-25.6 68.267 0 98.133l273.067 273.067c17.067 12.8 34.133 21.333 51.2 21.333z" />
<glyph unicode="&#xe95f;" glyph-name="corner-up-left" d="M388.267 938.667c25.6-25.6 25.6-68.267 0-98.133l-153.6-153.6h516.267c72.533 0 140.8-29.867 192-81.067s81.067-119.467 81.067-192v-409.6c0-38.4-29.867-68.267-68.267-68.267s-68.267 29.867-68.267 68.267v409.6c0 34.133-12.8 72.533-38.4 98.133s-59.733 38.4-98.133 38.4h-516.267l157.867-157.867c25.6-25.6 25.6-68.267 0-98.133-25.6-25.6-68.267-25.6-98.133 0l-273.067 277.333c-25.6 25.6-25.6 68.267 0 98.133l273.067 273.067c25.6 25.6 68.267 25.6 93.867-4.267z" />
<glyph unicode="&#xe960;" glyph-name="corner-up-right" d="M635.733 938.667c25.6 25.6 68.267 25.6 98.133 0l273.067-273.067c25.6-25.6 25.6-68.267 0-98.133l-273.067-273.067c-25.6-25.6-68.267-25.6-98.133 0-25.6 25.6-25.6 68.267 0 98.133l157.867 157.867h-520.533c-34.133 0-72.533-12.8-98.133-38.4s-38.4-59.733-38.4-98.133v-409.6c0-38.4-29.867-68.267-68.267-68.267s-68.267 29.867-68.267 68.267v409.6c0 72.533 29.867 140.8 81.067 192s119.467 81.067 192 81.067h516.267l-157.867 157.867c-25.6 25.6-25.6 68.267 4.267 93.867z" />
<glyph unicode="&#xe961;" glyph-name="credit-card-off" d="M1024 652.8v-409.6c0-21.333-4.267-38.4-8.533-59.733-8.533-25.6-38.4-42.667-64-34.133s-42.667 38.4-34.133 64c4.267 8.533 4.267 21.333 4.267 29.867v204.8h-256c-29.867 0-51.2 21.333-51.2 51.2 0 21.333 12.8 38.4 25.6 42.667 8.533 4.267 17.067 8.533 25.6 8.533h256v102.4c0 25.6-12.8 51.2-29.867 72.533s-46.933 29.867-72.533 29.867h-460.8c-29.867 0-51.2 21.333-51.2 51.2s21.333 51.2 51.2 51.2h460.8c55.467 0 106.667-21.333 145.067-59.733s59.733-89.6 59.733-145.067zM1006.933 25.6l-102.4 102.4c0 0-4.267 4.267-4.267 4.267l-810.667 810.667c-21.333 21.333-51.2 21.333-72.533 0s-21.333-51.2 0-72.533l59.733-59.733c-46.933-34.133-76.8-93.867-76.8-157.867v-409.6c0-55.467 21.333-106.667 59.733-145.067s89.6-59.733 145.067-59.733h614.4c8.533 0 17.067 0 25.6 0l89.6-89.6c21.333-21.333 51.2-21.333 72.533 0s21.333 55.467 0 76.8zM337.067 550.4h-234.667v102.4c0 34.133 17.067 68.267 46.933 85.333l187.733-187.733zM204.8 140.8c-25.6 0-51.2 12.8-72.533 29.867s-29.867 46.933-29.867 72.533v204.8h337.067l102.4-102.4h-81.067c-29.867 0-51.2-21.333-51.2-51.2s21.333-51.2 51.2-51.2h102.4c21.333 0 38.4 12.8 46.933 34.133l136.533-136.533h-541.867zM204.8 294.4c0 29.867 21.333 51.2 51.2 51.2v0c29.867 0 51.2-21.333 51.2-51.2s-21.333-51.2-51.2-51.2v0c-29.867 0-51.2 21.333-51.2 51.2z" />
<glyph unicode="&#xe962;" glyph-name="credit-card" d="M819.2 857.6h-614.4c-110.933 0-204.8-93.867-204.8-204.8v-409.6c0-110.933 93.867-204.8 204.8-204.8h614.4c110.933 0 204.8 93.867 204.8 204.8v409.6c0 110.933-93.867 204.8-204.8 204.8zM102.4 652.8c0 55.467 46.933 102.4 102.4 102.4h614.4c55.467 0 102.4-46.933 102.4-102.4v-51.2h-819.2v51.2zM921.6 243.2c0-55.467-46.933-102.4-102.4-102.4h-614.4c-55.467 0-102.4 46.933-102.4 102.4v256h819.2v-256zM204.8 294.4c0 29.867 21.333 51.2 51.2 51.2s51.2-21.333 51.2-51.2c0-29.867-21.333-51.2-51.2-51.2s-51.2 21.333-51.2 51.2zM409.6 294.4c0 29.867 21.333 51.2 51.2 51.2h102.4c29.867 0 51.2-21.333 51.2-51.2s-21.333-51.2-51.2-51.2h-102.4c-29.867 0-51.2 21.333-51.2 51.2z" />
<glyph unicode="&#xe963;" glyph-name="cup" d="M972.8 652.8c-29.867 34.133-72.533 51.2-119.467 51.2h-55.467v55.467c0 29.867-12.8 59.733-34.133 81.067s-51.2 34.133-81.067 34.133h-567.467c-29.867 0-59.733-12.8-81.067-34.133s-34.133-51.2-34.133-81.067v-456.533c0-76.8 29.867-149.333 81.067-200.533 55.467-51.2 128-81.067 204.8-81.067h226.133c76.8 0 149.333 29.867 200.533 81.067 38.4 38.4 64 89.6 76.8 145.067h64c46.933 0 89.6 17.067 119.467 51.2 29.867 29.867 51.2 76.8 51.2 119.467v115.2c0 46.933-17.067 89.6-51.2 119.467zM682.667 307.2c0-46.933-17.067-89.6-51.2-119.467-29.867-29.867-76.8-51.2-119.467-51.2h-226.133c-46.933 0-89.6 17.067-119.467 51.2-29.867 29.867-51.2 76.8-51.2 119.467v452.267h567.467v-452.267zM908.8 418.133c0-17.067-4.267-29.867-17.067-38.4-8.533-12.8-21.333-17.067-38.4-17.067h-55.467v226.133h55.467c17.067 0 29.867-4.267 38.4-17.067s17.067-25.6 17.067-38.4v-115.2z" />
<glyph unicode="&#xe964;" glyph-name="dashboard" d="M994.133 567.467c-34.133 102.4-102.4 187.733-187.733 247.467s-187.733 98.133-294.4 98.133-209.067-34.133-294.4-98.133-153.6-145.067-187.733-247.467c-34.133-102.4-38.4-209.067-8.533-311.467s89.6-192 174.933-260.267c8.533-8.533 21.333-12.8 29.867-12.8h571.733c12.8 0 21.333 4.267 29.867 12.8 85.333 64 145.067 157.867 174.933 260.267s29.867 213.333-8.533 311.467zM904.533 285.867c-21.333-76.8-64-145.067-123.733-196.267h-537.6c-59.733 51.2-102.4 119.467-123.733 196.267-25.6 81.067-21.333 166.4 8.533 247.467 25.6 81.067 81.067 149.333 149.333 200.533 68.267 46.933 149.333 76.8 234.667 76.8s166.4-25.6 238.933-76.8c68.267-51.2 123.733-119.467 149.333-200.533s29.867-166.4 4.267-247.467zM729.6 610.133c-21.333 21.333-51.2 21.333-72.533 0l-81.067-76.8c-21.333 8.533-42.667 12.8-64 12.8-85.333 0-153.6-68.267-153.6-153.6s68.267-153.6 153.6-153.6 153.6 68.267 153.6 153.6c0 25.6-4.267 46.933-12.8 64l76.8 76.8c17.067 25.6 17.067 59.733 0 76.8zM512 345.6c-29.867 0-51.2 21.333-51.2 51.2s21.333 51.2 51.2 51.2 51.2-21.333 51.2-51.2-21.333-51.2-51.2-51.2z" />
<glyph unicode="&#xe965;" glyph-name="device-desktop" d="M921.6 908.8h-819.2c-55.467 0-102.4-46.933-102.4-102.4v-512c0-55.467 46.933-102.4 102.4-102.4h204.8v-102.4h-51.2c-29.867 0-51.2-21.333-51.2-51.2s21.333-51.2 51.2-51.2h512c29.867 0 51.2 21.333 51.2 51.2s-21.333 51.2-51.2 51.2h-51.2v102.4h204.8c55.467 0 102.4 46.933 102.4 102.4v512c0 55.467-46.933 102.4-102.4 102.4zM614.4 89.6h-204.8v102.4h204.8v-102.4zM921.6 294.4h-819.2v512h819.2v-512z" />
<glyph unicode="&#xe966;" glyph-name="device-laptop" d="M0 93.867c0 29.867 21.333 51.2 51.2 51.2h921.6c29.867 0 51.2-21.333 51.2-51.2s-21.333-51.2-51.2-51.2h-921.6c-29.867 0-51.2 21.333-51.2 51.2zM102.4 708.267c0 55.467 46.933 102.4 102.4 102.4h614.4c55.467 0 102.4-46.933 102.4-102.4v-409.6c0-55.467-46.933-102.4-102.4-102.4h-614.4c-55.467 0-102.4 46.933-102.4 102.4v409.6zM819.2 708.267h-614.4v-409.6h614.4v409.6z" />
<glyph unicode="&#xe967;" glyph-name="device-mobile" d="M256 853.333c0 0 0 0 0 0v-810.667c0 0 0 0 0-4.267 0 0 4.267-4.267 8.533-4.267h490.667c4.267 0 8.533 0 8.533 4.267 0 0 0 4.267 0 4.267v810.667c0 0 0 0 0 4.267 0 0-4.267 4.267-8.533 4.267h-132.267c0 0 0-4.267 0-4.267 0-29.867-21.333-51.2-51.2-51.2h-123.733c-29.867 0-51.2 21.333-51.2 51.2 0 4.267 0 4.267 0 4.267h-132.267c-4.267-4.267-4.267-4.267-8.533-8.533zM153.6 853.333c0 59.733 55.467 106.667 110.933 106.667h490.667c59.733 0 110.933-46.933 110.933-106.667v-806.4c0-64-55.467-106.667-110.933-106.667h-490.667c-59.733 0-110.933 46.933-110.933 106.667v806.4zM512 213.333c29.867 0 51.2-21.333 51.2-51.2v0c0-29.867-21.333-51.2-51.2-51.2s-51.2 21.333-51.2 51.2v0c0 25.6 21.333 51.2 51.2 51.2z" />
<glyph unicode="&#xe968;" glyph-name="device-tablet" d="M102.4 857.6c0 55.467 46.933 102.4 102.4 102.4h614.4c55.467 0 102.4-46.933 102.4-102.4v-819.2c0-55.467-46.933-102.4-102.4-102.4h-614.4c-55.467 0-102.4 46.933-102.4 102.4v819.2zM819.2 857.6h-614.4v-819.2h614.4v819.2zM409.6 192c0 55.467 46.933 102.4 102.4 102.4s102.4-46.933 102.4-102.4c0-55.467-46.933-102.4-102.4-102.4s-102.4 46.933-102.4 102.4z" />
<glyph unicode="&#xe969;" glyph-name="dislike" d="M806.4 934.4h-375.467c-46.933 0-89.6-12.8-128-42.667-4.267 4.267-8.533 4.267-12.8 8.533-21.333 17.067-46.933 29.867-76.8 29.867h-106.667c-29.867 0-55.467-8.533-76.8-29.867-17.067-21.333-29.867-46.933-29.867-76.8v-375.467c0-29.867 12.8-55.467 29.867-72.533 21.333-17.067 46.933-29.867 76.8-29.867h162.133c42.667 0 85.333-17.067 115.2-46.933s46.933-72.533 46.933-115.2v-55.467c0-42.667 17.067-85.333 46.933-115.2s72.533-46.933 115.2-46.933c42.667 0 85.333 17.067 115.2 46.933s46.933 72.533 46.933 115.2v217.6h106.667c42.667 0 85.333 17.067 115.2 46.933s46.933 72.533 46.933 115.2c0 0 0 4.267 0 8.533l-55.467 268.8c0 0 0 0 0 0-8.533 38.4-25.6 76.8-55.467 106.667s-64 46.933-106.667 42.667zM213.333 823.467v-375.467h-106.667v375.467h110.933zM324.267 443.733v273.067c0 29.867 12.8 55.467 29.867 76.8 21.333 21.333 46.933 29.867 76.8 29.867h375.467c0 0 4.267 0 4.267 0 4.267 0 12.8 0 21.333-12.8 12.8-12.8 21.333-29.867 25.6-55.467l51.2-264.533c0-12.8-8.533-25.6-17.067-34.133s-25.6-17.067-38.4-17.067h-162.133c-29.867 0-55.467-25.6-55.467-55.467v-268.8c0-12.8-4.267-29.867-17.067-38.4-8.533-8.533-25.6-17.067-38.4-17.067s-29.867 4.267-38.4 17.067c-8.533 8.533-17.067 25.6-17.067 38.4v55.467c0 72.533-29.867 140.8-76.8 192-25.6 42.667-72.533 68.267-123.733 81.067z" />
<glyph unicode="&#xe96a;" glyph-name="dots-horisontal" d="M0 448c0 64 51.2 115.2 115.2 115.2s115.2-51.2 115.2-115.2-51.2-115.2-115.2-115.2-115.2 51.2-115.2 115.2zM396.8 448c0 64 51.2 115.2 115.2 115.2s115.2-51.2 115.2-115.2-51.2-115.2-115.2-115.2-115.2 51.2-115.2 115.2zM797.867 448c0 64 51.2 115.2 115.2 115.2s110.933-51.2 110.933-115.2-51.2-115.2-115.2-115.2-110.933 51.2-110.933 115.2z" />
<glyph unicode="&#xe96b;" glyph-name="dots-vertical" d="M512 960c64 0 115.2-51.2 115.2-115.2s-51.2-110.933-115.2-110.933-115.2 51.2-115.2 110.933 51.2 115.2 115.2 115.2zM512 563.2c64 0 115.2-51.2 115.2-115.2s-51.2-115.2-115.2-115.2-115.2 51.2-115.2 115.2 51.2 115.2 115.2 115.2zM512 162.133c64 0 115.2-51.2 115.2-115.2s-51.2-110.933-115.2-110.933-115.2 51.2-115.2 115.2 51.2 110.933 115.2 110.933z" />
<glyph unicode="&#xe96c;" glyph-name="download-file" d="M908.8 691.2l-256 256c-12.8 8.533-25.6 12.8-38.4 12.8h-358.4c-42.667 0-81.067-17.067-106.667-46.933s-46.933-64-46.933-106.667v-716.8c0-42.667 17.067-81.067 46.933-106.667s64-46.933 106.667-46.933h512c42.667 0 81.067 17.067 106.667 46.933s46.933 68.267 46.933 106.667v563.2c0 12.8-4.267 25.6-12.8 38.4zM665.6 785.067l81.067-81.067h-81.067v81.067zM819.2 89.6c0-12.8-4.267-25.6-12.8-38.4-8.533-8.533-21.333-12.8-38.4-12.8h-512c-12.8 0-25.6 4.267-38.4 12.8-8.533 8.533-12.8 21.333-12.8 38.4v716.8c0 12.8 4.267 25.6 12.8 38.4 12.8 8.533 25.6 12.8 38.4 12.8h307.2v-153.6c0-25.6 12.8-51.2 29.867-72.533s46.933-29.867 72.533-29.867h153.6v-512zM704 307.2l-153.6-153.6c-4.267-4.267-8.533-8.533-17.067-12.8-4.267 0-4.267 0-8.533 0-8.533-4.267-17.067-4.267-25.6 0-4.267 0-4.267 0-8.533 0-4.267 4.267-12.8 4.267-17.067 12.8l-153.6 153.6c-21.333 21.333-21.333 51.2 0 72.533s51.2 21.333 72.533 0l64-68.267v183.467c0 29.867 21.333 51.2 51.2 51.2s51.2-21.333 51.2-51.2v-183.467l64 68.267c21.333 21.333 51.2 21.333 72.533 0 25.6-17.067 25.6-51.2 8.533-72.533z" />
<glyph unicode="&#xe96d;" glyph-name="download" d="M512 960c29.867 0 55.467-25.6 55.467-55.467v-516.267l179.2 179.2c21.333 21.333 55.467 21.333 76.8 0s21.333-55.467 0-76.8l-268.8-268.8c-21.333-21.333-55.467-21.333-76.8 0l-273.067 268.8c-21.333 21.333-21.333 55.467 0 76.8s55.467 21.333 76.8 0l179.2-179.2v516.267c-4.267 29.867 21.333 55.467 51.2 55.467zM81.067 260.267c29.867 0 55.467-25.6 55.467-55.467v-106.667c0-12.8 4.267-29.867 17.067-38.4 8.533-8.533 25.6-17.067 38.4-17.067h648.533c12.8 0 29.867 4.267 38.4 17.067 8.533 8.533 17.067 25.6 17.067 38.4v106.667c0 29.867 25.6 55.467 55.467 55.467s55.467-25.6 55.467-55.467v-106.667c0-42.667-17.067-85.333-46.933-115.2s-72.533-46.933-115.2-46.933h-657.067c-42.667 0-85.333 17.067-115.2 46.933s-46.933 72.533-46.933 115.2v106.667c0 29.867 25.6 55.467 55.467 55.467z" />
<glyph unicode="&#xe96e;" glyph-name="edit" d="M46.933 691.2c29.867 29.867 72.533 46.933 115.2 46.933h162.133c29.867 0 55.467-25.6 55.467-55.467s-25.6-55.467-55.467-55.467h-162.133c-17.067 4.267-29.867 0-38.4-8.533-12.8-12.8-17.067-25.6-17.067-38.4v-482.133c0-12.8 4.267-29.867 17.067-38.4 8.533-8.533 25.6-17.067 38.4-17.067h482.133c12.8 0 29.867 4.267 38.4 17.067 8.533 8.533 17.067 25.6 17.067 38.4v162.133c0 29.867 25.6 55.467 55.467 55.467s55.467-25.6 55.467-55.467v-162.133c0-42.667-17.067-85.333-46.933-115.2-38.4-29.867-76.8-46.933-119.467-46.933h-482.133c-42.667 0-85.333 17.067-115.2 46.933s-46.933 72.533-46.933 115.2v482.133c0 42.667 17.067 81.067 46.933 110.933zM977.067 913.067c-34.133 29.867-76.8 46.933-119.467 46.933s-85.333-17.067-119.467-46.933l-456.533-456.533c-8.533-8.533-17.067-25.6-17.067-38.4v-162.133c0-29.867 25.6-55.467 55.467-55.467h162.133c12.8 0 29.867 4.267 38.4 17.067l456.533 456.533c29.867 34.133 46.933 72.533 46.933 119.467s-17.067 85.333-46.933 119.467zM460.8 311.467h-85.333v85.333l320 320 85.333-85.333-320-320zM900.267 750.933l-42.667-42.667-85.333 85.333 42.667 42.667c12.8 12.8 25.6 17.067 42.667 17.067s29.867-8.533 42.667-17.067c12.8-12.8 17.067-25.6 17.067-42.667s-8.533-29.867-17.067-42.667z" />
<glyph unicode="&#xe96f;" glyph-name="expand" d="M512 960c17.067 0 34.133-8.533 46.933-17.067l256-256c25.6-25.6 25.6-64 0-89.6s-64-25.6-89.6 0l-213.333 209.067-209.067-213.333c-25.6-25.6-64-25.6-89.6 0s-25.6 68.267-4.267 93.867l256 256c12.8 8.533 29.867 17.067 46.933 17.067zM209.067 302.933c25.6 25.6 64 25.6 89.6 0l209.067-209.067 209.067 209.067c25.6 25.6 64 25.6 89.6 0s25.6-64 0-89.6l-256-256c-25.6-25.6-64-25.6-89.6 0l-256 256c-17.067 21.333-17.067 64 4.267 89.6z" />
<glyph unicode="&#xe970;" glyph-name="external-link" d="M51.2 738.133c29.867 34.133 72.533 51.2 119.467 51.2h285.867c29.867 0 55.467-25.6 55.467-55.467s-25.6-55.467-55.467-55.467h-285.867c-17.067 0-29.867-4.267-38.4-17.067-12.8-12.8-17.067-25.6-17.067-42.667v-512c0-17.067 4.267-29.867 17.067-38.4s25.6-17.067 38.4-17.067h512c17.067 0 29.867 4.267 38.4 17.067s17.067 25.6 17.067 38.4v285.867c0 29.867 25.6 55.467 55.467 55.467s55.467-25.6 55.467-55.467v-285.867c0-46.933-17.067-89.6-51.2-119.467-25.6-34.133-68.267-51.2-115.2-51.2h-512c-46.933 0-89.6 17.067-119.467 51.2-34.133 29.867-51.2 72.533-51.2 119.467v512c0 46.933 17.067 89.6 51.2 119.467zM1024 904.533v-285.867c0-29.867-25.6-55.467-55.467-55.467s-55.467 25.6-55.467 55.467v145.067l-473.6-469.333c-21.333-21.333-59.733-21.333-81.067 0s-21.333 59.733 0 81.067l469.333 469.333h-145.067c-29.867 0-55.467 25.6-55.467 55.467s25.6 59.733 55.467 59.733h285.867c4.267 0 8.533 0 12.8-4.267 4.267 0 4.267 0 8.533-4.267 8.533-4.267 12.8-8.533 17.067-12.8s8.533-12.8 12.8-17.067c0-4.267 4.267-4.267 4.267-8.533 0 0 0-4.267 0-8.533z" />
<glyph unicode="&#xe971;" glyph-name="eye-off" d="M1019.733 469.333c-128 226.133-298.667 349.867-507.733 349.867-46.933 0-89.6-4.267-136.533-17.067-25.6-8.533-38.4-34.133-29.867-59.733 4.267-21.333 29.867-38.4 55.467-29.867 34.133 8.533 72.533 17.067 110.933 17.067 157.867 0 294.4-85.333 409.6-277.333-29.867-51.2-64-93.867-98.133-132.267-17.067-17.067-17.067-46.933 4.267-64 17.067-17.067 46.933-17.067 64 4.267 42.667 46.933 85.333 106.667 123.733 170.667 8.533 8.533 8.533 25.6 4.267 38.4zM964.267 64l-170.667 170.667h-4.267l-311.467 311.467-349.867 354.133c-21.333 17.067-51.2 17.067-68.267 0s-17.067-46.933 0-68.267l132.267-132.267c-68.267-55.467-132.267-136.533-187.733-230.4-8.533-12.8-8.533-34.133 0-46.933 128-226.133 298.667-349.867 507.733-349.867 85.333 0 166.4 21.333 243.2 64l145.067-145.067c17.067-17.067 46.933-17.067 64 0 17.067 21.333 17.067 51.2 0 72.533zM512 170.667c-157.867 0-294.4 85.333-409.6 277.333 51.2 81.067 102.4 145.067 157.867 187.733l128-128c-12.8-17.067-17.067-38.4-17.067-59.733 0-38.4 12.8-72.533 42.667-98.133 25.6-25.6 59.733-42.667 98.133-42.667 21.333 0 42.667 4.267 59.733 12.8l115.2-115.2c-55.467-21.333-115.2-34.133-174.933-34.133z" />
<glyph unicode="&#xe972;" glyph-name="eye-on" d="M512 494.933c-25.6 0-46.933-21.333-46.933-46.933s21.333-46.933 46.933-46.933 46.933 21.333 46.933 46.933c0 25.6-21.333 46.933-46.933 46.933zM371.2 448c0 76.8 64 140.8 140.8 140.8s140.8-64 140.8-140.8c0-76.8-64-140.8-140.8-140.8s-140.8 64-140.8 140.8zM102.4 448c115.2-192 251.733-277.333 409.6-277.333s294.4 85.333 409.6 277.333c-115.2 192-251.733 277.333-409.6 277.333s-294.4-85.333-409.6-277.333zM4.267 469.333c128 226.133 298.667 349.867 507.733 349.867s375.467-123.733 507.733-349.867c8.533-12.8 8.533-29.867 0-46.933-128-226.133-298.667-349.867-507.733-349.867s-375.467 123.733-507.733 349.867c-4.267 17.067-4.267 34.133 0 46.933z" />
<glyph unicode="&#xe973;" glyph-name="file-clean" d="M908.8 691.2l-256 256c-12.8 8.533-25.6 12.8-38.4 12.8h-358.4c-42.667 0-81.067-17.067-106.667-46.933s-46.933-64-46.933-106.667v-716.8c0-42.667 17.067-81.067 46.933-106.667s64-46.933 106.667-46.933h512c42.667 0 81.067 17.067 106.667 46.933s46.933 68.267 46.933 106.667v563.2c0 12.8-4.267 25.6-12.8 38.4zM746.667 704h-81.067v81.067l81.067-81.067zM819.2 89.6c0-12.8-4.267-25.6-12.8-38.4-8.533-8.533-21.333-12.8-38.4-12.8h-512c-12.8 0-25.6 4.267-38.4 12.8-8.533 8.533-12.8 21.333-12.8 38.4v716.8c0 12.8 4.267 25.6 12.8 38.4 12.8 8.533 25.6 12.8 38.4 12.8h307.2v-153.6c0-25.6 12.8-51.2 29.867-72.533s46.933-29.867 72.533-29.867h153.6v-512z" />
<glyph unicode="&#xe974;" glyph-name="file" d="M908.8 691.2l-256 256c-12.8 8.533-25.6 12.8-38.4 12.8h-358.4c-42.667 0-81.067-17.067-106.667-46.933s-46.933-64-46.933-106.667v-716.8c0-42.667 17.067-81.067 46.933-106.667s64-46.933 106.667-46.933h512c42.667 0 81.067 17.067 106.667 46.933s46.933 68.267 46.933 106.667v563.2c0 12.8-4.267 25.6-12.8 38.4zM746.667 704h-81.067v81.067l81.067-81.067zM819.2 89.6c0-12.8-4.267-25.6-12.8-38.4-8.533-8.533-21.333-12.8-38.4-12.8h-512c-12.8 0-25.6 4.267-38.4 12.8-8.533 8.533-12.8 21.333-12.8 38.4v716.8c0 12.8 4.267 25.6 12.8 38.4 12.8 8.533 25.6 12.8 38.4 12.8h307.2v-153.6c0-25.6 12.8-51.2 29.867-72.533s46.933-29.867 72.533-29.867h153.6v-512zM307.2 601.6c0 29.867 21.333 51.2 51.2 51.2h51.2c29.867 0 51.2-21.333 51.2-51.2s-21.333-51.2-51.2-51.2h-51.2c-29.867 0-51.2 21.333-51.2 51.2zM307.2 396.8c0 29.867 21.333 51.2 51.2 51.2h307.2c29.867 0 51.2-21.333 51.2-51.2s-21.333-51.2-51.2-51.2h-307.2c-29.867 0-51.2 21.333-51.2 51.2zM307.2 192c0 29.867 21.333 51.2 51.2 51.2h307.2c29.867 0 51.2-21.333 51.2-51.2s-21.333-51.2-51.2-51.2h-307.2c-29.867 0-51.2 21.333-51.2 51.2z" />
<glyph unicode="&#xe975;" glyph-name="filter-alt-horizontal" d="M968.533 844.8h-179.2c-21.333 68.267-85.333 115.2-162.133 115.2s-136.533-46.933-162.133-115.2h-409.6c-29.867 0-55.467-25.6-55.467-55.467s25.6-55.467 55.467-55.467h409.6c21.333-68.267 85.333-115.2 162.133-115.2s136.533 46.933 162.133 115.2h179.2c29.867 0 55.467 25.6 55.467 55.467s-25.6 55.467-55.467 55.467zM627.2 733.867c-29.867 0-55.467 25.6-55.467 55.467s25.6 55.467 55.467 55.467c29.867 0 55.467-25.6 55.467-55.467s-25.6-55.467-55.467-55.467zM968.533 503.467h-524.8c-21.333 68.267-85.333 115.2-157.867 115.2s-136.533-46.933-162.133-115.2h-68.267c-29.867 0-55.467-25.6-55.467-55.467s25.6-55.467 55.467-55.467h68.267c21.333-68.267 85.333-115.2 162.133-115.2s136.533 46.933 162.133 115.2h520.533c29.867 0 55.467 25.6 55.467 55.467s-25.6 55.467-55.467 55.467zM285.867 392.533c-29.867 0-55.467 25.6-55.467 55.467s25.6 55.467 55.467 55.467 55.467-25.6 55.467-55.467-25.6-55.467-55.467-55.467zM968.533 162.133h-8.533c-21.333 68.267-85.333 115.2-162.133 115.2-72.533 0-136.533-46.933-162.133-115.2h-580.267c-29.867 0-55.467-25.6-55.467-55.467s25.6-55.467 55.467-55.467h580.267c21.333-68.267 85.333-115.2 162.133-115.2 72.533 0 136.533 46.933 162.133 115.2h8.533c29.867 0 55.467 25.6 55.467 55.467s-25.6 55.467-55.467 55.467zM797.867 51.2c-29.867 0-55.467 25.6-55.467 55.467s25.6 55.467 55.467 55.467c29.867 0 55.467-25.6 55.467-55.467s-25.6-55.467-55.467-55.467z" />
<glyph unicode="&#xe976;" glyph-name="filter-alt-vertical" d="M226.133 721.067v183.467c0 29.867-25.6 55.467-55.467 55.467s-55.467-25.6-55.467-55.467v-179.2c-68.267-25.6-115.2-89.6-115.2-162.133s46.933-136.533 115.2-162.133v-409.6c0-29.867 25.6-55.467 55.467-55.467s55.467 25.6 55.467 55.467v409.6c68.267 21.333 115.2 85.333 115.2 162.133s-46.933 136.533-115.2 157.867zM170.667 503.467c-29.867 0-55.467 25.6-55.467 55.467 0 34.133 25.6 59.733 55.467 59.733s55.467-25.6 55.467-55.467c0-34.133-25.6-59.733-55.467-59.733zM567.467 379.733v524.8c0 29.867-25.6 55.467-55.467 55.467s-55.467-25.6-55.467-55.467v-520.533c-68.267-21.333-115.2-85.333-115.2-162.133 0-72.533 46.933-136.533 115.2-162.133v-68.267c0-29.867 25.6-55.467 55.467-55.467s55.467 25.6 55.467 55.467v68.267c68.267 21.333 115.2 85.333 115.2 162.133 0 72.533-46.933 136.533-115.2 157.867zM512 162.133c-29.867 0-55.467 25.6-55.467 55.467s25.6 55.467 55.467 55.467 55.467-25.6 55.467-55.467c0-29.867-25.6-55.467-55.467-55.467zM908.8 891.733v12.8c0 29.867-25.6 55.467-55.467 55.467s-55.467-25.6-55.467-55.467v-8.533c-68.267-21.333-115.2-85.333-115.2-162.133s46.933-136.533 115.2-162.133v-580.267c0-29.867 25.6-55.467 55.467-55.467s55.467 25.6 55.467 55.467v580.267c68.267 21.333 115.2 85.333 115.2 162.133s-46.933 136.533-115.2 157.867zM853.333 674.133c-29.867 0-55.467 25.6-55.467 55.467s25.6 59.733 55.467 59.733 55.467-25.6 55.467-55.467-25.6-59.733-55.467-59.733z" />
<glyph unicode="&#xe977;" glyph-name="filter-off" d="M1006.933 25.6l-917.333 917.333c-21.333 21.333-51.2 21.333-72.533 0s-21.333-51.2 0-72.533l85.333-85.333c0-4.267-4.267-12.8-4.267-17.067-8.533-21.333 0-46.933 12.8-68.267 0 0 4.267-4.267 4.267-4.267l243.2-268.8v-183.467c0-17.067 8.533-29.867 21.333-42.667l204.8-153.6c17.067-12.8 38.4-12.8 55.467-4.267s29.867 25.6 29.867 46.933v132.267l268.8-268.8c21.333-21.333 51.2-21.333 72.533 0 17.067 17.067 17.067 51.2-4.267 72.533zM563.2 192l-102.4 76.8v157.867l102.4-102.4v-132.267zM925.867 789.333c-4.267 12.8-12.8 29.867-25.6 38.4-12.8 12.8-25.6 21.333-38.4 25.6-4.267 0-12.8 4.267-17.067 4.267h-486.4c-29.867 0-51.2-21.333-51.2-51.2s21.333-51.2 51.2-51.2h465.067l-200.533-217.6c-17.067-21.333-17.067-51.2 4.267-72.533s51.2-17.067 72.533 4.267l209.067 230.4c0 0 4.267 4.267 4.267 4.267 8.533 12.8 12.8 29.867 17.067 42.667 0 12.8 0 29.867-4.267 42.667z" />
<glyph unicode="&#xe978;" glyph-name="filter" d="M85.333 947.2c8.533 4.267 12.8 4.267 21.333 4.267h814.933c8.533 0 12.8 0 21.333-4.267 17.067-4.267 34.133-17.067 46.933-29.867s25.6-29.867 29.867-46.933c4.267-21.333 4.267-42.667 4.267-59.733-4.267-17.067-8.533-38.4-21.333-51.2 0-4.267-4.267-4.267-4.267-8.533l-298.667-328.533v-413.867c0-25.6-12.8-46.933-34.133-55.467s-46.933-8.533-64 4.267l-251.733 187.733c-17.067 12.8-25.6 29.867-25.6 51.2v226.133l-298.667 328.533c0 4.267-4.267 4.267-4.267 8.533-12.8 12.8-17.067 34.133-21.333 51.2 0 17.067 0 38.4 8.533 55.467 4.267 21.333 12.8 34.133 25.6 51.2 17.067 12.8 29.867 21.333 51.2 29.867zM128 823.467l302.933-332.8c8.533-12.8 17.067-25.6 17.067-42.667v-217.6l123.733-93.867v311.467c0 17.067 4.267 29.867 17.067 42.667l307.2 332.8h-768z" />
<glyph unicode="&#xe979;" glyph-name="flag" d="M917.333 870.4c0 0-4.267 4.267-8.533 4.267-21.333 12.8-46.933 12.8-68.267-4.267 0 0 0 0 0 0-38.4-38.4-89.6-59.733-145.067-59.733s-106.667 21.333-149.333 59.733c-55.467 55.467-136.533 89.6-217.6 89.6s-157.867-29.867-213.333-85.333c-4.267 0-8.533-4.267-8.533-4.267-4.267-4.267-4.267-4.267-8.533-8.533-4.267-8.533-8.533-21.333-8.533-29.867v-844.8c0-29.867 25.6-51.2 51.2-51.2s51.2 25.6 51.2 51.2v345.6c38.4 29.867 85.333 46.933 132.267 46.933 55.467 0 106.667-21.333 149.333-59.733 59.733-59.733 136.533-89.6 221.867-89.6 81.067 0 157.867 29.867 213.333 85.333 4.267 0 4.267 4.267 8.533 4.267 4.267 4.267 4.267 4.267 8.533 8.533 4.267 8.533 8.533 21.333 8.533 29.867v473.6c0 12.8-4.267 25.6-17.067 38.4zM827.733 379.733c-38.4-29.867-85.333-46.933-132.267-46.933-55.467 0-106.667 21.333-149.333 59.733-59.733 59.733-136.533 89.6-221.867 89.6-46.933 0-89.6-8.533-132.267-29.867v358.4c38.4 29.867 85.333 46.933 132.267 46.933 55.467 0 106.667-21.333 149.333-59.733 59.733-59.733 140.8-93.867 221.867-93.867 46.933 0 89.6 8.533 132.267 29.867v-354.133z" />
<glyph unicode="&#xe97a;" glyph-name="flame" d="M802.133 597.333c-8.533 8.533-25.6 21.333-42.667 17.067-17.067 0-29.867-8.533-42.667-25.6-51.2-85.333-93.867-110.933-110.933-123.733-8.533-4.267-17.067-4.267-29.867 0 42.667 93.867 34.133 187.733 17.067 264.533-21.333 98.133-68.267 179.2-106.667 213.333-17.067 17.067-34.133 21.333-55.467 12.8-17.067-4.267-29.867-25.6-29.867-46.933 0-132.267-68.267-196.267-136.533-260.267-8.533-12.8-17.067-21.333-29.867-25.6-76.8-81.067-132.267-170.667-132.267-285.867 0-106.667 42.667-204.8 123.733-281.6 76.8-76.8 179.2-119.467 285.867-119.467s209.067 42.667 285.867 119.467 123.733 174.933 123.733 281.6-55.467 192-119.467 260.267zM733.867 123.733c-59.733-55.467-136.533-85.333-221.867-85.333s-157.867 29.867-221.867 85.333c-55.467 55.467-85.333 128-85.333 204.8 0 81.067 34.133 149.333 102.4 213.333 8.533 8.533 17.067 17.067 25.6 25.6 51.2 51.2 110.933 110.933 145.067 196.267 8.533-21.333 17.067-42.667 21.333-59.733 21.333-76.8 21.333-162.133-29.867-230.4-17.067-21.333-8.533-51.2 8.533-72.533 42.667-34.133 98.133-59.733 162.133-34.133 46.933 17.067 85.333 51.2 128 106.667 29.867-46.933 46.933-93.867 46.933-145.067 4.267-76.8-25.6-145.067-81.067-204.8z" />
</font>
</defs>
</svg>
