<?xml version="1.0" standalone="no"?>
<!DOCTYPE svg PUBLIC "-//W3C//DTD SVG 1.1//EN" "http://www.w3.org/Graphics/SVG/1.1/DTD/svg11.dtd" >
<svg xmlns="http://www.w3.org/2000/svg" xmlns:xlink="http://www.w3.org/1999/xlink" version="1.1">
<metadata>
Created by FontForge 20161013 at Sun Jul 23 14:11:40 2017
 By ,,,
Copyright (c)2016. Cerebri Sans is a trademark of Alfredo Marco Pradil. All rights reserved.
</metadata>
<defs>
<font id="CerebriSans-Regular" horiz-adv-x="0" >
  <font-face 
    font-family="Cerebri Sans"
    font-weight="400"
    font-stretch="normal"
    units-per-em="2048"
    panose-1="0 0 5 0 0 0 0 0 0 0"
    ascent="1536"
    descent="-512"
    x-height="983"
    cap-height="1408"
    bbox="-1638 -559 2769 2331"
    underline-thickness="102"
    underline-position="-388"
    unicode-range="U+0020-FB02"
  />
<missing-glyph horiz-adv-x="1252" 
d="M204 0v1536h844v-1536h-844zM340 135h573v1266h-573v-1266z" />
    <glyph glyph-name="fi" unicode="fi" horiz-adv-x="1177" 
d="M227 1189q0 64 10.5 114.5t28 86.5t46.5 62.5t60.5 42.5t74.5 25t84.5 12.5t95.5 3.5v-145h-37.5t-36 -2t-36 -5t-31 -10t-29.5 -17t-23 -25.5t-19.5 -36t-11 -48t-4.5 -61.5v-203h228v-138h-228v-845h-172v845h-190v138h190v206zM915 1214q-48 0 -82.5 34.5t-34.5 82.5
t34.5 82t82.5 34q47 0 81.5 -34t34.5 -82t-34.5 -82.5t-81.5 -34.5zM827 0v983h174v-983h-174z" />
    <glyph glyph-name="fl" unicode="fl" horiz-adv-x="1178" 
d="M227 1189q0 64 10.5 114.5t28 86.5t46.5 62.5t60.5 42.5t74.5 25t84.5 12.5t95.5 3.5v-145h-37.5t-36 -2t-36 -5t-31 -10t-29.5 -17t-23 -25.5t-19.5 -36t-11 -48t-4.5 -61.5v-203h228v-138h-228v-845h-172v845h-190v138h190v206zM827 1536h175v-1536h-175v1536z" />
    <glyph glyph-name="f_f" unicode="ff" horiz-adv-x="1283" 
d="M227 0v845h-190v138h190v206q0 64 10.5 114.5t28 86.5t46.5 62.5t60.5 42.5t74.5 25t84.5 12.5t95.5 3.5v-145h-37.5t-36 -2t-36 -5t-31 -10t-29.5 -17t-23 -25.5t-19.5 -36t-11 -48t-4.5 -61.5v-203h460v206q0 64 10.5 114.5t28 86.5t46.5 62.5t60.5 42.5t74.5 25
t84.5 12.5t95.5 3.5v-145h-37.5t-36 -2t-36 -5t-31 -10t-29.5 -17t-23 -25.5t-19.5 -36t-11 -48t-4.5 -61.5v-203h228v-138h-228v-845h-172v845h-460v-845h-172z" />
    <glyph glyph-name=".notdef" horiz-adv-x="1252" 
d="M204 0v1536h844v-1536h-844zM340 135h573v1266h-573v-1266z" />
    <glyph glyph-name=".null" 
 />
    <glyph glyph-name="nonmarkingreturn" horiz-adv-x="682" 
 />
    <glyph glyph-name="space" unicode=" " horiz-adv-x="532" 
 />
    <glyph glyph-name="exclam" unicode="!" horiz-adv-x="654" 
d="M252 399l-12 1009h173l-12 -1009h-149zM326 -20q-47 0 -81.5 34t-34.5 82t34 82t82 34t82.5 -34t34.5 -82t-34.5 -82t-82.5 -34z" />
    <glyph glyph-name="quotedbl" unicode="&#x22;" horiz-adv-x="984" 
d="M253 763l-15 645h164l-11 -645h-138zM593 763l-10 645h162l-14 -645h-138z" />
    <glyph glyph-name="numbersign" unicode="#" horiz-adv-x="1507" 
d="M335 0l49 345h-280l18 133h281l65 452h-281l21 132h276l53 350h130l-48 -350h370l49 350h134l-51 -350h282l-21 -132h-278l-64 -452h279l-19 -133h-278l-53 -345h-130l49 345h-372l-50 -345h-131zM535 478h371l65 452h-373z" />
    <glyph glyph-name="dollar" unicode="$" horiz-adv-x="1363" 
d="M1201 382q0 -97 -36 -172.5t-100.5 -123.5t-147 -74t-180.5 -31v-128h-94v128q-193 11 -325.5 110t-165.5 262l182 44q22 -110 106 -178t203 -81v510l-10 3q-58 16 -94.5 27t-88 30.5t-83.5 38.5t-68.5 48t-57 62.5t-34 79t-13.5 99.5q0 93 36 167.5t98 121.5t142.5 73
t172.5 28v133h94v-136q170 -16 289 -101t153 -237l-173 -45q-23 99 -94 156t-175 71v-480q46 -12 75 -20.5t72.5 -22.5t72 -27t65 -32.5t59.5 -39.5t48 -48t39.5 -59.5t23.5 -71t9 -84.5zM374 1038q0 -48 20 -85t60 -63t83 -43t106 -35v459q-114 -6 -191.5 -64t-77.5 -169z
M737 136q127 8 205 67t76 174q-1 52 -22 92t-63 68.5t-87 47.5t-109 38v-487z" />
    <glyph glyph-name="percent" unicode="%" horiz-adv-x="1532" 
d="M410 847q-119 0 -203.5 85t-84.5 206q0 119 84.5 204.5t203.5 85.5q120 0 204 -85.5t84 -204.5q0 -120 -84 -205.5t-204 -85.5zM307 -1l750 1411h158l-750 -1411h-158zM410 973q70 0 117.5 48.5t47.5 116.5q0 69 -48 116.5t-117 47.5q-68 0 -116.5 -47.5t-48.5 -116.5
t48.5 -117t116.5 -48zM1124 -18q-121 0 -205.5 85t-84.5 205t85 204.5t205 84.5q118 0 202 -85t84 -204q0 -120 -83.5 -205t-202.5 -85zM1124 107q68 0 117 49t49 116q0 69 -49 117t-117 48q-70 0 -118 -47.5t-48 -117.5q0 -68 48.5 -116.5t117.5 -48.5z" />
    <glyph glyph-name="ampersand" unicode="&#x26;" horiz-adv-x="1513" 
d="M1367 0h-207l-114 150q-212 -170 -471 -170q-197 0 -322 99t-125 280q0 62 17.5 115.5t46 96t82.5 89.5t108 85t141 93q-88 118 -122.5 184.5t-34.5 135.5q0 122 97 198q90 72 230 72q141 0 234 -74t93 -198q0 -98 -65.5 -177.5t-211.5 -171.5l319 -413q138 189 138 399
h161q0 -143 -52 -280t-146 -249zM575 1257q-42 -42 -42 -110q0 -33 14.5 -66t32 -58t70.5 -96l12 -15q101 65 149 122t48 121q0 69 -48 108.5t-116 39.5q-74 0 -120 -46zM581 128q203 0 371 145l-344 452q-70 -44 -109.5 -70.5t-85 -64t-68 -68.5t-38 -71.5t-15.5 -86.5
q0 -116 80.5 -176t208.5 -60z" />
    <glyph glyph-name="quotesingle" unicode="'" horiz-adv-x="642" 
d="M251 763l-10 645h162l-14 -645h-138z" />
    <glyph glyph-name="parenleft" unicode="(" horiz-adv-x="674" 
d="M539 -499q-196 126 -308.5 406.5t-112.5 657.5q0 375 112.5 657t308.5 408l92 -114q-166 -105 -263 -356.5t-97 -594.5q0 -345 96.5 -594.5t263.5 -354.5z" />
    <glyph glyph-name="parenright" unicode=")" horiz-adv-x="674" 
d="M135 -499l-92 115q167 105 263.5 354.5t96.5 594.5q0 343 -97 594.5t-263 356.5l92 114q196 -126 308.5 -408t112.5 -657q0 -377 -112.5 -657.5t-308.5 -406.5z" />
    <glyph glyph-name="asterisk" unicode="*" horiz-adv-x="990" 
d="M364 908l-89 54l149 200q16 21 8 35.5t-34 10.5l-253 -23v103l253 -25q25 -4 33.5 11t-7.5 35l-149 205l89 49l105 -226q11 -24 27 -24t26 24l104 226l90 -49l-150 -205q-16 -20 -7.5 -35t33.5 -11l252 25v-103l-252 23q-26 4 -34 -10t8 -36l150 -200l-90 -54l-104 227
q-10 24 -26 24.5t-27 -24.5z" />
    <glyph glyph-name="plus" unicode="+" horiz-adv-x="1207" 
d="M533 206v405h-405v142h405v403h142v-403h403v-142h-403v-405h-142z" />
    <glyph glyph-name="comma" unicode="," horiz-adv-x="649" 
d="M311 -361h-126l122 620h181z" />
    <glyph glyph-name="hyphen" unicode="-" horiz-adv-x="1060" 
d="M171 461v143h717v-143h-717z" />
    <glyph glyph-name="period" unicode="." horiz-adv-x="659" 
d="M328 -20q-47 0 -81.5 34t-34.5 82q0 47 34.5 81.5t81.5 34.5t82 -34.5t35 -81.5q0 -48 -34.5 -82t-82.5 -34z" />
    <glyph glyph-name="slash" unicode="/" horiz-adv-x="1151" 
d="M-4 -372l992 1908h167l-992 -1908h-167z" />
    <glyph glyph-name="zero" unicode="0" horiz-adv-x="1153" 
d="M577 -19q-225 0 -347 184t-122 540t120.5 539t348.5 183q226 0 347 -183.5t121 -538.5t-122.5 -539.5t-345.5 -184.5zM577 141q143 0 219 141t76 423q0 284 -77.5 422.5t-217.5 138.5q-141 0 -218 -138t-77 -423q0 -283 75.5 -423.5t219.5 -140.5z" />
    <glyph glyph-name="one" unicode="1" horiz-adv-x="1153" 
d="M587 1408h162v-1408h-171v1219l-338 -293v185z" />
    <glyph glyph-name="two" unicode="2" horiz-adv-x="1153" 
d="M349 159h701v-159h-950v131l564 583q92 94 127 167t35 145q0 120 -71 186.5t-184 66.5q-121 0 -192.5 -72.5t-71.5 -226.5v-104l-173 16v87q0 219 119 334.5t318 115.5q186 0 305.5 -107t119.5 -292q0 -110 -47.5 -203.5t-152.5 -202.5z" />
    <glyph glyph-name="three" unicode="3" horiz-adv-x="1153" 
d="M567 -19q-469 0 -469 501l176 9q0 -177 66 -265t227 -88q135 0 218.5 76t83.5 199q0 125 -80.5 198t-201.5 73h-70v147h68q90 0 154 65t64 160t-68 155t-171 60q-66 0 -112.5 -21t-71.5 -61.5t-36 -89.5t-11 -114l-176 6q0 210 105.5 323t300.5 113q173 0 288.5 -103
t115.5 -256q0 -104 -56 -183t-141 -114q121 -35 198 -129t77 -237q0 -190 -134.5 -307t-343.5 -117z" />
    <glyph glyph-name="four" unicode="4" horiz-adv-x="1153" 
d="M1110 442v-159h-217v-283h-173v283h-674v160l586 965h261v-966h217zM225 442h495v839z" />
    <glyph glyph-name="five" unicode="5" horiz-adv-x="1153" 
d="M544 906q257 0 384 -118.5t127 -330.5q0 -210 -130.5 -342.5t-341.5 -132.5q-93 0 -176.5 28.5t-149 82t-104 138.5t-38.5 190q0 29 5 72l177 15q-8 -58 -8 -79q0 -74 25.5 -131t68.5 -89.5t92.5 -48.5t104.5 -16q136 0 218.5 86t82.5 221q0 141 -85.5 222t-270.5 81
h-356l87 652h738v-161h-592l-46 -339h188z" />
    <glyph glyph-name="six" unicode="6" horiz-adv-x="1153" 
d="M1063 469q2 -141 -64 -253t-177 -172t-244 -60q-209 0 -350 132.5t-141 341.5q0 176 122 338l471 612h204l-391 -493q59 17 122 17q116 0 216 -54t165 -161.5t67 -247.5zM574 145q141 0 231.5 89.5t88.5 237.5q-2 150 -93 237.5t-230 87.5t-230 -96.5t-89 -235.5
q1 -150 90.5 -235t231.5 -85z" />
    <glyph glyph-name="seven" unicode="7" horiz-adv-x="1153" 
d="M98 1408h963v-145l-688 -1263h-198l694 1248h-771v160z" />
    <glyph glyph-name="eight" unicode="8" horiz-adv-x="1153" 
d="M578 -19q-205 0 -341.5 116.5t-136.5 306.5q0 133 71 230t193 142q-87 43 -138.5 120.5t-51.5 173.5q0 156 115 256.5t289 100.5q171 0 285.5 -101t114.5 -256q0 -96 -50 -173.5t-136 -120.5q121 -46 192 -142.5t71 -229.5q0 -191 -136 -307t-341 -116zM578 833
q101 0 170.5 66t69.5 162q0 94 -69.5 158.5t-170.5 64.5q-103 0 -172 -64t-69 -159q0 -96 69.5 -162t171.5 -66zM578 141q130 0 216.5 77t86.5 204q0 125 -86.5 201t-216.5 76q-131 0 -218 -76t-87 -201q0 -127 87 -204t218 -77z" />
    <glyph glyph-name="nine" unicode="9" horiz-adv-x="1153" 
d="M574 1424q208 0 349.5 -132.5t141.5 -341.5q0 -175 -123 -338l-471 -612h-207l389 490q-56 -15 -118 -15q-115 0 -214.5 54.5t-164.5 162t-67 246.5q-1 107 36.5 198.5t103.5 154t155.5 98t189.5 35.5zM581 611q139 0 229.5 96.5t88.5 235.5q-2 149 -91 234t-230 85
q-140 0 -231.5 -89.5t-89.5 -237.5t93.5 -236t230.5 -88z" />
    <glyph glyph-name="colon" unicode=":" horiz-adv-x="638" 
d="M317 676q-47 0 -81.5 34t-34.5 82q0 47 34.5 81.5t81.5 34.5q48 0 82.5 -34.5t34.5 -81.5q0 -48 -34.5 -82t-82.5 -34zM317 -20q-47 0 -81.5 34t-34.5 82q0 47 34.5 81.5t81.5 34.5q48 0 82.5 -34.5t34.5 -81.5q0 -48 -34.5 -82t-82.5 -34z" />
    <glyph glyph-name="semicolon" unicode=";" horiz-adv-x="651" 
d="M351 676q-48 0 -83 34t-35 82q0 47 35 81.5t83 34.5q47 0 82 -34.5t35 -81.5q0 -48 -35 -82t-82 -34zM153 -361l123 620h181l-178 -620h-126z" />
    <glyph glyph-name="less" unicode="&#x3c;" horiz-adv-x="1390" 
d="M1245 1361v-157l-981 -495l981 -496v-160l-1130 572v169z" />
    <glyph glyph-name="equal" unicode="=" horiz-adv-x="1291" 
d="M264 824v142h764v-142h-764zM264 415v142h764v-142h-764z" />
    <glyph glyph-name="greater" unicode="&#x3e;" horiz-adv-x="1390" 
d="M145 1361l1130 -567v-169l-1130 -572v160l981 496l-981 495v157z" />
    <glyph glyph-name="question" unicode="?" horiz-adv-x="1037" 
d="M438 394v125q0 94 47 145.5t152 102.5q131 65 131 243q0 124 -72 198.5t-186 74.5q-111 0 -183.5 -79t-72.5 -200q0 -37 8 -82l-152 15q-7 41 -7 86q0 178 113.5 291.5t291.5 113.5q181 0 297 -115t116 -300q0 -76 -18.5 -138t-50.5 -105t-69.5 -72t-81.5 -47
q-59 -25 -86.5 -57t-27.5 -88v-112h-149zM518 -20q-47 0 -81 34t-34 82q0 47 34.5 81.5t80.5 34.5q47 0 81 -34.5t34 -81.5q0 -48 -34 -82t-81 -34z" />
    <glyph glyph-name="at" unicode="@" horiz-adv-x="1792" 
d="M898 -201q-151 0 -289 59t-237.5 158.5t-158.5 237.5t-59 290q0 151 57.5 288t156.5 237t238 159t294 59q154 0 291 -58t236 -158.5t157 -241.5t58 -300q0 -106 -25.5 -185t-70.5 -124.5t-99 -67.5t-118 -22q-91 0 -155 36t-90 101h-8q-90 -121 -257 -121
q-107 0 -175 54.5t-68 159.5q0 106 73 160.5t210 79.5l200 38v51q0 82 -45.5 119t-119.5 37q-150 0 -175 -127l-126 31q21 94 99.5 145.5t201.5 51.5q62 0 114 -14.5t95 -44.5t67.5 -84t24.5 -126v-305q0 -65 35.5 -101t103.5 -36q89 0 140 69.5t51 214.5q0 141 -49 263
t-133 207t-198.5 133t-243.5 48q-131 0 -248 -49.5t-200.5 -133.5t-132.5 -199.5t-49 -242.5q0 -171 84 -315.5t229 -228.5t318 -84q169 0 312 85l54 -103q-168 -100 -370 -100zM852 247q37 0 72.5 10.5t69 33t54 65.5t20.5 101v90l-185 -37q-91 -19 -131 -50t-40 -89
q0 -61 38 -92.5t102 -31.5z" />
    <glyph glyph-name="A" unicode="A" horiz-adv-x="1372" 
d="M1125 0l-121 337h-637l-120 -337h-187l519 1408h214l519 -1408h-187zM424 495h524l-262 733z" />
    <glyph glyph-name="B" unicode="B" horiz-adv-x="1279" 
d="M889 735q129 -33 203.5 -122.5t74.5 -230.5q0 -170 -108.5 -276t-289.5 -106h-548v1408h427q187 0 301.5 -103.5t114.5 -269.5q0 -102 -45.5 -181t-129.5 -119zM896 1024q0 99 -67.5 163t-181.5 64h-253v-460h286q95 0 155.5 67.5t60.5 165.5zM739 159q117 0 185.5 69.5
t68.5 171.5q0 106 -71.5 174.5t-195.5 68.5h-332v-484h345z" />
    <glyph glyph-name="C" unicode="C" horiz-adv-x="1532" 
d="M824 -19q-149 0 -277 50.5t-222.5 142t-148 228.5t-53.5 303q0 165 54 301.5t148 228.5t222 142t277 50q209 0 374.5 -99t247.5 -275l-165 -68q-64 130 -184.5 200.5t-272.5 70.5q-110 0 -205 -37t-166 -106t-111.5 -174t-40.5 -234t40.5 -234.5t111.5 -174.5t166 -106.5
t205 -37.5q152 0 272.5 70.5t184.5 199.5l165 -67q-82 -177 -247 -275.5t-375 -98.5z" />
    <glyph glyph-name="D" unicode="D" horiz-adv-x="1452" 
d="M221 0v1408h454q210 0 358.5 -91t220 -247.5t71.5 -364.5q0 -156 -41.5 -284.5t-121.5 -222.5t-204.5 -146t-282.5 -52h-454zM400 163h269q233 0 351.5 144t118.5 398q0 252 -119 396t-351 144h-269v-1082z" />
    <glyph glyph-name="E" unicode="E" horiz-adv-x="1098" 
d="M976 1245h-572v-461h504v-161h-504v-460h572v-163h-755v1408h755v-163z" />
    <glyph glyph-name="F" unicode="F" horiz-adv-x="1063" 
d="M982 1245h-578v-460h504v-162h-504v-623h-183v1408h761v-163z" />
    <glyph glyph-name="G" unicode="G" horiz-adv-x="1630" 
d="M819 -19q-147 0 -274.5 49.5t-221 140t-147 227t-53.5 302.5q0 222 93 389t251 252.5t357 85.5q194 0 351 -84t247 -244l-158 -85q-67 123 -182 185.5t-258 62.5q-110 0 -205 -37t-165.5 -106.5t-110.5 -176.5t-40 -239q0 -131 39.5 -237t110 -176.5t167 -108
t209.5 -37.5q194 0 322.5 109.5t151.5 312.5h-475v152h650v-718h-147v264q-70 -136 -201.5 -209.5t-310.5 -73.5z" />
    <glyph glyph-name="H" unicode="H" horiz-adv-x="1514" 
d="M1114 1408h179v-1408h-179v625h-713v-625h-180v1408h180v-622h713v622z" />
    <glyph glyph-name="I" unicode="I" horiz-adv-x="621" 
d="M221 0v1408h179v-1408h-179z" />
    <glyph glyph-name="J" unicode="J" horiz-adv-x="967" 
d="M357 -19q-159 0 -308 83l78 152q101 -69 217 -69q115 0 179.5 77.5t64.5 214.5v969h179v-1000q0 -198 -112 -312.5t-298 -114.5z" />
    <glyph glyph-name="K" unicode="K" horiz-adv-x="1314" 
d="M1030 0l-506 651h-124v-651h-179v1408h179v-595h123l487 595h220l-553 -671l583 -737h-230z" />
    <glyph glyph-name="L" unicode="L" horiz-adv-x="946" 
d="M400 163h489v-163h-668v1408h179v-1245z" />
    <glyph glyph-name="M" unicode="M" horiz-adv-x="1878" 
d="M1710 0h-174l-94 1162l-450 -1162h-107l-447 1158l-95 -1158h-175l107 1408h236l427 -1098l428 1098h238z" />
    <glyph glyph-name="N" unicode="N" horiz-adv-x="1566" 
d="M1167 1408h178v-1408h-189l-759 1139v-1139h-176v1408h187l759 -1134v1134z" />
    <glyph glyph-name="O" unicode="O" horiz-adv-x="1646" 
d="M824 -19q-149 0 -277 50.5t-222.5 142t-148 228.5t-53.5 303q0 165 54 301.5t148 228.5t222 142t277 50q147 0 275 -50.5t222 -142t148 -228t54 -301.5t-54 -302.5t-148 -229t-222 -142t-275 -50.5zM824 150q225 0 372.5 148.5t147.5 406.5q0 129 -40.5 234t-111 174
t-165 106t-203.5 37q-110 0 -205 -37t-166 -106t-111.5 -174t-40.5 -234q0 -130 40.5 -236t111.5 -175t166 -106.5t205 -37.5z" />
    <glyph glyph-name="P" unicode="P" horiz-adv-x="1267" 
d="M754 1408q124 0 220.5 -58.5t148 -156.5t51.5 -217q0 -184 -116.5 -306.5t-303.5 -122.5h-354v-547h-179v1408h533zM728 703q125 0 196 75.5t71 199.5q0 122 -71 198.5t-196 76.5h-328v-550h328z" />
    <glyph glyph-name="Q" unicode="Q" horiz-adv-x="1666" 
d="M1573 -71l-161 -55l-198 212q-171 -105 -389 -105q-149 0 -278 50.5t-223.5 142t-148.5 228.5t-54 303q0 165 54 301.5t148.5 228t223.5 142t278 50.5q148 0 277 -50.5t223.5 -142t149 -228t54.5 -301.5q0 -322 -194 -521zM299 705q0 -132 41 -239.5t112.5 -177t167 -107
t205.5 -37.5t205 37.5t166.5 107t112 177t40.5 239.5q0 171 -70.5 297.5t-188 190t-265.5 63.5t-266 -63.5t-189 -190t-71 -297.5z" />
    <glyph glyph-name="R" unicode="R" horiz-adv-x="1275" 
d="M983 0l-362 635h-221v-635h-179v1408h467q207 0 315.5 -111.5t108.5 -286.5q0 -147 -82.5 -245t-229.5 -123l392 -642h-209zM400 1251v-475h264q137 0 206 63.5t69 172.5t-69.5 174t-205.5 65h-264z" />
    <glyph glyph-name="S" unicode="S" horiz-adv-x="1271" 
d="M656 -19q-220 0 -367.5 99.5t-183.5 273.5l181 43q25 -122 127 -192t249 -70q49 0 93 8t84.5 26.5t69.5 45.5t46 69t16 94q-1 36 -12.5 66.5t-28 52.5t-47.5 42.5t-57 34t-70.5 28.5t-74.5 23.5t-81 22.5q-10 3 -15 4q-58 15 -94.5 26t-87.5 30.5t-83.5 38.5t-68.5 48
t-56.5 62.5t-34 79.5t-13.5 100q0 126 65.5 216t169 132t232.5 42q197 0 338.5 -86.5t179.5 -255.5l-174 -44q-26 115 -117 173t-220 58q-57 0 -108 -13t-93.5 -40t-67.5 -73.5t-25 -107.5q0 -32 10 -59.5t25 -47.5t43 -39t52.5 -31t65.5 -25.5t70 -22t77 -20.5
q189 -50 271 -90q183 -90 209 -259q4 -29 4 -61q0 -103 -40.5 -182t-111 -126t-158 -70.5t-188.5 -23.5z" />
    <glyph glyph-name="T" unicode="T" horiz-adv-x="1013" 
d="M957 1408v-163h-361v-1245h-178v1245h-362v163h901z" />
    <glyph glyph-name="U" unicode="U" horiz-adv-x="1409" 
d="M703 -19q-224 0 -367.5 130t-143.5 356v941h179v-916q0 -170 92.5 -259t239.5 -89t241 89.5t94 258.5v916h179v-941q0 -226 -144.5 -356t-369.5 -130z" />
    <glyph glyph-name="V" unicode="V" horiz-adv-x="1336" 
d="M1087 1408h189l-516 -1408h-184l-516 1408h188l420 -1184z" />
    <glyph glyph-name="W" unicode="W" horiz-adv-x="2042" 
d="M473 0l-402 1408h186l334 -1161l351 1161h158l351 -1161l336 1161h185l-403 -1408h-210l-338 1083l-338 -1083h-210z" />
    <glyph glyph-name="X" unicode="X" horiz-adv-x="1423" 
d="M57 0l549 735l-524 673h217l413 -546l412 546h217l-523 -673l548 -735h-226l-428 597l-428 -597h-227z" />
    <glyph glyph-name="Y" unicode="Y" horiz-adv-x="1197" 
d="M1152 1408l-463 -737v-671h-180v670l-464 738h204l350 -576l350 576h203z" />
    <glyph glyph-name="Z" unicode="Z" horiz-adv-x="1231" 
d="M320 163h820v-163h-1042v146l800 1099h-797v163h1013v-148z" />
    <glyph glyph-name="bracketleft" unicode="[" horiz-adv-x="646" 
d="M176 -512v2048h416v-128h-263v-1792h263v-128h-416z" />
    <glyph glyph-name="backslash" unicode="\" horiz-adv-x="1151" 
d="M988 -372l-992 1908h167l992 -1908h-167z" />
    <glyph glyph-name="bracketright" unicode="]" horiz-adv-x="643" 
d="M467 -512h-416v128h263v1792h-263v128h416v-2048z" />
    <glyph glyph-name="asciicircum" unicode="^" horiz-adv-x="1393" 
d="M1289 277h-150l-443 976l-442 -976h-150l512 1131h161z" />
    <glyph glyph-name="underscore" unicode="_" horiz-adv-x="1367" 
d="M171 -143v143h1024v-143h-1024z" />
    <glyph glyph-name="grave" unicode="`" horiz-adv-x="482" 
d="M303 1229l-225 259l92 67l252 -326h-119z" />
    <glyph glyph-name="a" unicode="a" horiz-adv-x="1073" 
d="M403 -19q-131 0 -215.5 67.5t-84.5 201.5q0 74 27 128.5t80 89.5t115.5 55.5t149.5 35.5l159 26q87 16 87 91q0 100 -61.5 146.5t-155.5 46.5q-92 0 -154 -45t-73 -138l-156 33q22 140 123 210.5t268 70.5q78 0 142.5 -17.5t119 -55t85 -106t30.5 -161.5v-406
q0 -76 22.5 -102.5t77.5 -26.5h16v-125h-86q-159 0 -186 133h-8q-112 -152 -322 -152zM443 121q131 0 211 95t80 260l-260 -50q-103 -17 -152.5 -54.5t-49.5 -107.5q0 -73 47.5 -108t123.5 -35z" />
    <glyph glyph-name="b" unicode="b" horiz-adv-x="1251" 
d="M697 1002q192 0 325 -142t133 -369q0 -228 -132 -370t-326 -142q-116 0 -209.5 57t-140.5 155l-4 -191h-167v1536h172l1 -741q48 96 140.5 151.5t207.5 55.5zM659 129q137 0 230 100.5t93 261.5t-93 261.5t-230 100.5q-135 0 -228 -104t-93 -258q0 -155 92.5 -258.5
t228.5 -103.5z" />
    <glyph glyph-name="c" unicode="c" horiz-adv-x="1113" 
d="M584 -18q-213 0 -352 141t-139 369t138.5 369t352.5 141q164 0 284.5 -86t165.5 -239l-162 -26q-34 99 -111 153t-178 54q-138 0 -227.5 -101t-89.5 -265t89.5 -264.5t227.5 -100.5q101 0 178 54t111 153l162 -27q-45 -152 -166.5 -238.5t-283.5 -86.5z" />
    <glyph glyph-name="d" unicode="d" horiz-adv-x="1251" 
d="M902 1536h173v-1536h-167l-4 191q-47 -98 -140 -155t-208 -57q-94 0 -178 36.5t-146.5 102t-99 162.5t-36.5 211q0 227 133.5 369t326.5 142q113 0 205.5 -55.5t140.5 -150.5v740zM592 129q136 0 228.5 103.5t92.5 258.5q0 154 -93 258t-228 104q-137 0 -230 -100.5
t-93 -261.5t93 -261.5t230 -100.5z" />
    <glyph glyph-name="e" unicode="e" horiz-adv-x="1131" 
d="M1036 511l-2 -47h-768q4 -164 94 -251.5t224 -87.5q90 0 163 47t112 130l156 -33q-53 -134 -168 -211t-261 -77q-219 0 -354 137t-135 374q0 236 135.5 373t348.5 137q206 0 330.5 -126t124.5 -365zM581 869q-122 0 -204.5 -69.5t-103.5 -202.5h589q-10 133 -86 202.5
t-195 69.5z" />
    <glyph glyph-name="f" unicode="f" horiz-adv-x="651" 
d="M627 1391h-37.5t-36 -2t-36 -5t-31 -10t-29.5 -17t-23 -25.5t-19.5 -36t-11 -48t-4.5 -61.5v-203h228v-138h-228v-845h-172v845h-190v138h190v206q0 64 10.5 114.5t28 86.5t46.5 62.5t60.5 42.5t74.5 25t84.5 12.5t95.5 3.5v-145z" />
    <glyph glyph-name="g" unicode="g" horiz-adv-x="1232" 
d="M888 983h168v-933q0 -249 -127 -383t-352 -134q-357 0 -477 301l143 70q87 -227 329 -227q151 0 230.5 96t79.5 268v182q-46 -88 -140 -141.5t-205 -53.5q-187 0 -318 138.5t-131 349.5t131.5 348.5t319.5 137.5q113 0 206 -55t139 -145zM576 175q133 0 226.5 101
t93.5 240q0 140 -93 241t-227 101t-226.5 -98t-92.5 -244q0 -144 93.5 -242.5t225.5 -98.5z" />
    <glyph glyph-name="h" unicode="h" horiz-adv-x="1137" 
d="M646 1002q152 0 243 -91t91 -261v-650h-173v617q0 123 -60 181t-155 58q-105 0 -173.5 -67t-69.5 -201v-588h-173v1536h173v-683q47 71 123.5 110t173.5 39z" />
    <glyph glyph-name="i" unicode="i" horiz-adv-x="526" 
d="M264 1214q-48 0 -82.5 34.5t-34.5 82.5t34.5 82t82.5 34q47 0 81.5 -34t34.5 -82t-34.5 -82.5t-81.5 -34.5zM176 0v983h174v-983h-174z" />
    <glyph glyph-name="j" unicode="j" horiz-adv-x="528" 
d="M265 1214q-48 0 -82.5 34.5t-34.5 82.5t34.5 82t82.5 34q47 0 81.5 -34t34.5 -82t-34.5 -82.5t-81.5 -34.5zM-50 -460v147q94 0 141 28t66 96t19 203v969h175v-969q0 -260 -91 -367t-310 -107z" />
    <glyph glyph-name="k" unicode="k" horiz-adv-x="1041" 
d="M802 0l-372 455h-79v-455h-175v1536h175v-949h74l341 396h205l-397 -449l449 -534h-221z" />
    <glyph glyph-name="l" unicode="l" horiz-adv-x="527" 
d="M176 0v1536h175v-1536h-175z" />
    <glyph glyph-name="m" unicode="m" horiz-adv-x="1656" 
d="M1181 1002q142 0 229 -83.5t87 -234.5v-684h-173v639q0 107 -54 162t-137 55q-93 0 -150 -62t-57 -186v-608h-176v632q0 111 -54.5 167.5t-139.5 56.5q-92 0 -149.5 -63.5t-57.5 -190.5v-602h-173v983h173v-127q43 70 112.5 108t156.5 38q95 0 168 -41.5t109 -119.5
q44 78 118 119.5t168 41.5z" />
    <glyph glyph-name="n" unicode="n" horiz-adv-x="1138" 
d="M640 1002q155 0 247.5 -89t92.5 -251v-662h-173v623q0 119 -60 176t-154 57q-107 0 -175 -67.5t-69 -200.5v-588h-173v983h173v-126q98 145 291 145z" />
    <glyph glyph-name="o" unicode="o" horiz-adv-x="1180" 
d="M590 -19q-140 0 -252 61t-177.5 178.5t-65.5 271.5q0 231 139.5 370.5t355.5 139.5q217 0 356 -139.5t139 -370.5q0 -232 -139.5 -371.5t-355.5 -139.5zM589 125q140 0 232.5 101t92.5 266q0 164 -92.5 265t-232.5 101q-139 0 -230.5 -101t-91.5 -265q0 -165 91.5 -266
t230.5 -101z" />
    <glyph glyph-name="p" unicode="p" horiz-adv-x="1251" 
d="M695 1002q94 0 178 -36t146 -101t98.5 -162t36.5 -212q0 -230 -132.5 -371t-326.5 -141q-113 0 -205.5 56t-140.5 151v-681h-173v1478h167l4 -191q47 97 140 153.5t208 56.5zM661 129q135 0 227.5 99.5t92.5 262.5t-92.5 262t-227.5 99q-137 0 -231 -103.5t-94 -257.5
q0 -155 94 -258.5t231 -103.5z" />
    <glyph glyph-name="q" unicode="q" horiz-adv-x="1250" 
d="M906 983h167v-1478h-173v678q-47 -93 -140 -148.5t-204 -55.5q-195 0 -327.5 141t-132.5 371q0 115 36.5 212t99 162t146.5 101t178 36q113 0 206 -56t140 -151zM589 129q138 0 231 103.5t93 258.5q0 154 -93.5 257.5t-230.5 103.5q-135 0 -227.5 -99t-92.5 -262
q0 -164 92.5 -263t227.5 -99z" />
    <glyph glyph-name="r" unicode="r" horiz-adv-x="683" 
d="M345 810q37 81 122 132t189 52v-163q-150 0 -228.5 -73t-78.5 -233v-525h-173v983h169v-173z" />
    <glyph glyph-name="s" unicode="s" horiz-adv-x="945" 
d="M487 -19q-159 0 -265 71t-129 202l151 43q16 -88 80.5 -136.5t161.5 -48.5q52 0 94.5 13t72.5 48.5t29 89.5q-1 22 -8 40.5t-16 32.5t-28 27t-34 21t-44.5 18.5t-47.5 16t-55 16t-57 16.5q-62 19 -102 36t-83 47.5t-64.5 77.5t-21.5 110q0 93 48 157t124.5 92.5
t174.5 28.5q142 0 239.5 -64t119.5 -192l-142 -36q-16 83 -75 124.5t-141 41.5q-77 0 -132 -34.5t-55 -105.5q0 -30 14.5 -54.5t29.5 -38.5t54 -29.5t58 -21t72 -18.5q10 -3 15 -4q58 -15 94.5 -26.5t85 -36t76.5 -53.5t48 -76t20 -106q0 -75 -29.5 -132.5t-80.5 -90.5
t-114.5 -49.5t-137.5 -16.5z" />
    <glyph glyph-name="t" unicode="t" horiz-adv-x="702" 
d="M490 0q-122 0 -192 70.5t-70 196.5v578h-201v138h74q77 0 108.5 34.5t31.5 115.5v178h161v-328h226v-138h-226v-560q0 -70 37.5 -108.5t98.5 -38.5h90v-138h-138z" />
    <glyph glyph-name="u" unicode="u" horiz-adv-x="1137" 
d="M788 983h173v-983h-166l-4 130q-46 -72 -122 -110.5t-172 -38.5q-155 0 -247.5 89t-92.5 251v662h173v-623q0 -118 60.5 -176t154.5 -58q107 0 174.5 68t68.5 201v588z" />
    <glyph glyph-name="v" unicode="v" horiz-adv-x="1003" 
d="M789 983h185l-400 -983h-147l-398 983h184l288 -782z" />
    <glyph glyph-name="w" unicode="w" horiz-adv-x="1597" 
d="M1377 983h182l-339 -984h-157l-266 758l-267 -758h-158l-333 984h180l243 -753l267 753h133l267 -755z" />
    <glyph glyph-name="x" unicode="x" horiz-adv-x="1041" 
d="M37 0l378 492l-378 491h213l272 -376l272 376h210l-379 -491l379 -492h-211l-270 374l-273 -374h-213z" />
    <glyph glyph-name="y" unicode="y" horiz-adv-x="997" 
d="M782 983h183l-569 -1446h-179l197 487l-382 959h192l277 -765z" />
    <glyph glyph-name="z" unicode="z" horiz-adv-x="900" 
d="M312 140h524v-140h-784l518 842h-488v141h753z" />
    <glyph glyph-name="braceleft" unicode="{" horiz-adv-x="623" 
d="M460 -507q-106 0 -171 66.5t-65 170.5v434q0 137 -28 196t-125 100v108q97 41 125 101t28 198v431q0 105 65 171.5t171 66.5h89v-119h-59q-53 0 -81 -39t-28 -111v-418q0 -62 -6.5 -105t-25 -88t-58 -80t-101.5 -61q62 -26 101.5 -61t58 -80.5t25 -88.5t6.5 -105v-421
q0 -73 26 -108.5t83 -35.5h59v-122h-89z" />
    <glyph glyph-name="bar" unicode="|" horiz-adv-x="643" 
d="M264 -307v1843h115v-1843h-115z" />
    <glyph glyph-name="braceright" unicode="}" horiz-adv-x="620" 
d="M160 -507h-89v122h59q57 0 83 35.5t26 108.5v421q0 62 6.5 105t25 88.5t58 80.5t101.5 61q-62 26 -101.5 61t-58 80t-25 88t-6.5 105v418q0 72 -28 111t-81 39h-59v119h89q106 0 171 -66.5t65 -171.5v-431q0 -138 28 -198t125 -101v-108q-97 -41 -125 -100t-28 -196v-434
q0 -104 -65 -170.5t-171 -66.5z" />
    <glyph glyph-name="asciitilde" unicode="~" horiz-adv-x="1432" 
d="M932 351q-124 0 -230 107q-11 11 -43 46q-40 45 -73.5 66.5t-73.5 21.5q-77 0 -123 -63.5t-48 -156.5h-133q-5 157 80 255.5t227 98.5q81 0 138.5 -37t116.5 -112q26 -32 43.5 -49t46 -31.5t61.5 -14.5q74 0 122.5 60.5t45.5 157.5h132q9 -149 -74 -249t-215 -100z" />
    <glyph glyph-name="exclamdown" unicode="&#xa1;" horiz-adv-x="654" 
d="M326 1003q48 0 82.5 -34t34.5 -82t-34.5 -82t-82.5 -34t-82 34t-34 82t34.5 82t81.5 34zM252 584h149l12 -1009h-173z" />
    <glyph glyph-name="cent" unicode="&#xa2;" horiz-adv-x="1202" 
d="M669 371q84 0 156.5 43.5t120.5 119.5l122 -102q-64 -89 -154 -143.5t-196 -65.5v-223h-110v225q-195 23 -322 174t-127 371t127 371t322 174v221h110v-219q106 -11 196 -65.5t154 -143.5l-122 -102q-48 76 -120.5 119.5t-156.5 43.5q-145 0 -244.5 -112.5t-99.5 -286.5
t99.5 -286.5t244.5 -112.5z" />
    <glyph glyph-name="sterling" unicode="&#xa3;" horiz-adv-x="1342" 
d="M168 0v116l60 6q95 11 95 105v391h-155v137h155v222q0 198 125 325t324 127q106 0 193 -41.5t141 -125.5t54 -197q0 -35 -6 -72l-152 -32q10 52 10 82q0 107 -70.5 168.5t-172.5 61.5q-130 0 -206.5 -79.5t-76.5 -216.5v-222h332v-137h-332v-463h684v-155h-1002z" />
    <glyph glyph-name="currency" unicode="&#xa4;" horiz-adv-x="1397" 
d="M328 277l-94 100l103 102q-88 117 -88 264q0 149 90 264l-103 101l94 100l104 -106q120 91 267 91q149 0 263 -90l104 104l95 -95l-102 -103q89 -118 89 -266q0 -145 -89 -265l101 -101l-94 -100l-104 106q-115 -89 -265 -89q-148 0 -267 89zM699 427q132 0 224 94
t92 223q0 130 -92 222t-222 92q-132 0 -225 -93.5t-93 -225.5q0 -130 93.5 -221t222.5 -91z" />
    <glyph glyph-name="yen" unicode="&#xa5;" horiz-adv-x="1433" 
d="M629 0v250h-404v118h404v213h-404v118h384l-462 709h203l368 -579l367 579h202l-461 -709h382v-118h-401v-213h401v-118h-401v-250h-178z" />
    <glyph glyph-name="brokenbar" unicode="&#xa6;" horiz-adv-x="643" 
d="M264 799v737h115v-737h-115zM264 -307v737h115v-737h-115z" />
    <glyph glyph-name="section" unicode="&#xa7;" horiz-adv-x="1347" 
d="M1169 406q0 -147 -87 -242q87 -89 87 -227q0 -99 -39 -174.5t-108 -121t-156 -68t-190 -22.5q-202 0 -341.5 95.5t-174.5 260.5l158 38q27 -119 126.5 -188t236.5 -69q68 0 125.5 13t104.5 41t73.5 77t25.5 115q0 29 -8 54t-18.5 45t-32 38.5t-38 31.5t-49 27t-52 22
t-60.5 20t-61 17.5t-65 17.5q-56 15 -92 25.5t-85.5 28.5t-81 36.5t-66.5 46.5t-55 60.5t-33 77t-13 96.5q0 148 95 240q-95 85 -95 229q0 122 63.5 209t163 126.5t222.5 39.5q190 0 326 -83t171 -243l-152 -40q-27 114 -119 171.5t-221 57.5q-57 0 -108 -13t-94 -40
t-68.5 -74.5t-25.5 -109.5q0 -33 10 -60.5t24.5 -48t42.5 -39.5t51.5 -31t64.5 -26t69 -21.5t77 -20.5q186 -48 265 -86q177 -84 202 -246q5 -30 5 -63zM358 579q0 -33 10 -60.5t24.5 -48t42.5 -39.5t51.5 -31t64.5 -26t69 -21.5t77 -20.5q184 -49 257 -82q57 57 56 153
q0 29 -8 54t-18.5 45t-32 38.5t-38 31.5t-49 27t-52 22t-60.5 20t-61 17.5t-65 17.5q-126 33 -196 62q-72 -59 -72 -159z" />
    <glyph glyph-name="dieresis" unicode="&#xa8;" horiz-adv-x="894" 
d="M260 1214q-48 0 -82.5 34.5t-34.5 82.5t34.5 82t82.5 34q47 0 81.5 -34t34.5 -82t-34.5 -82.5t-81.5 -34.5zM634 1214q-48 0 -82.5 34.5t-34.5 82.5t34.5 82t82.5 34q47 0 81.5 -34t34.5 -82t-34.5 -82.5t-81.5 -34.5z" />
    <glyph glyph-name="copyright" unicode="&#xa9;" horiz-adv-x="1768" 
d="M882 -20q-148 0 -282.5 58t-232 155.5t-155.5 232.5t-58 283t58 283t155.5 232.5t232 155.5t282.5 58q198 0 366.5 -98t266.5 -266t98 -365t-98 -365t-266.5 -266t-366.5 -98zM882 87q128 0 243.5 49t198 131.5t131.5 198t49 243.5q0 170 -82.5 313t-225.5 226t-314 83
q-170 0 -312.5 -83t-225 -226t-82.5 -313q0 -171 82.5 -314t225 -225.5t312.5 -82.5zM883 289q-171 0 -292.5 122t-121.5 294t121 293t293 121q90 0 173.5 -38t140.5 -105l-88 -76q-41 49 -101 77t-125 28q-124 0 -210.5 -87t-86.5 -213q0 -127 86.5 -213.5t210.5 -86.5
q66 0 125.5 27t100.5 76l88 -76q-57 -67 -140.5 -105t-173.5 -38z" />
    <glyph glyph-name="ordfeminine" unicode="&#xaa;" horiz-adv-x="962" 
d="M669 1408h110v-615h-110v120q-40 -61 -103.5 -96.5t-140.5 -35.5q-129 0 -219.5 93t-90.5 226t91 226.5t219 93.5q77 0 140.5 -36t103.5 -98v122zM446 877q92 0 157.5 65.5t65.5 157.5q0 91 -65.5 155.5t-157.5 64.5t-157 -64.5t-65 -155.5q0 -92 65 -157.5t157 -65.5z
" />
    <glyph glyph-name="guillemotleft" unicode="&#xab;" horiz-adv-x="996" 
d="M384 229l-312 377l312 377h147l-311 -377l311 -377h-147zM765 229l-312 377l312 377h148l-311 -377l311 -377h-148z" />
    <glyph glyph-name="logicalnot" unicode="&#xac;" horiz-adv-x="1654" 
d="M1246 313v525h-1112v145h1256v-670h-144z" />
    <glyph glyph-name="uni00AD" unicode="&#xad;" horiz-adv-x="1060" 
d="M171 479v153h717v-153h-717z" />
    <glyph glyph-name="registered" unicode="&#xae;" horiz-adv-x="1785" 
d="M891 1438q198 0 366.5 -98t266.5 -266t98 -365t-98 -365t-266.5 -266t-366.5 -98q-148 0 -282.5 58t-232 155.5t-155.5 232.5t-58 283t58 283t155.5 232.5t232 155.5t282.5 58zM891 87q128 0 243.5 49t198 131.5t131.5 198t49 243.5q0 170 -82.5 313t-225.5 226t-314 83
q-170 0 -312.5 -83t-225 -226t-82.5 -313q0 -171 82.5 -314t225 -225.5t312.5 -82.5zM1209 894q0 -74 -40 -133.5t-106 -87.5l176 -396h-126l-163 376h-191v-376h-116v864h320q103 0 174.5 -72t71.5 -175zM759 1033v-280h190q62 0 104 40.5t42 99.5q0 61 -41.5 100.5
t-104.5 39.5h-190z" />
    <glyph glyph-name="macron" unicode="&#xaf;" horiz-adv-x="991" 
d="M172 1254v111h647v-111h-647z" />
    <glyph glyph-name="degree" unicode="&#xb0;" horiz-adv-x="972" 
d="M485 853q-119 0 -203 84.5t-84 203.5t84 203t203 84q120 0 204 -84t84 -203t-84 -203.5t-204 -84.5zM485 956q77 0 130.5 53.5t53.5 131.5q0 77 -54 131t-130 54t-129.5 -54t-53.5 -131q0 -78 53.5 -131.5t129.5 -53.5z" />
    <glyph glyph-name="plusminus" unicode="&#xb1;" horiz-adv-x="1258" 
d="M561 339v405h-403v141h403v405h144v-405h403v-141h-403v-405h-144zM149 2v143h944v-143h-944z" />
    <glyph glyph-name="acute" unicode="&#xb4;" horiz-adv-x="482" 
d="M61 1229l251 326l92 -67l-224 -259h-119z" />
    <glyph glyph-name="uni00B5" unicode="&#xb5;" horiz-adv-x="1358" 
d="M994 983h155v-983h-155v157q-56 -82 -143 -129.5t-187 -47.5q-150 0 -262 98v-590h-138v1495h156v-582q0 -117 83 -199.5t200 -82.5q120 0 205.5 82.5t85.5 199.5v582z" />
    <glyph glyph-name="paragraph" unicode="&#xb6;" horiz-adv-x="1192" 
d="M543 -307v1028h-65q-171 0 -267.5 89.5t-96.5 255.5q0 165 96.5 253.5t267.5 88.5h161v-1715h-96zM831 -307v1715h97v-1715h-97z" />
    <glyph glyph-name="periodcentered" unicode="&#xb7;" horiz-adv-x="623" 
d="M312 643q-38 0 -66 27.5t-28 66.5q0 38 28 65.5t66 27.5q37 0 65.5 -27.5t28.5 -65.5q0 -39 -28.5 -66.5t-65.5 -27.5z" />
    <glyph glyph-name="cedilla" unicode="&#xb8;" horiz-adv-x="615" 
d="M312 -532q-73 0 -139.5 37t-96.5 93l86 36q22 -32 65 -53.5t83 -21.5q49 0 84 34t35 85q0 54 -35 84t-90 30q-43 0 -80 -20l-75 49l110 219h94l-86 -178q36 8 55 8q87 0 143.5 -53.5t56.5 -138.5q0 -88 -60.5 -149t-149.5 -61z" />
    <glyph glyph-name="ordmasculine" unicode="&#xba;" horiz-adv-x="888" 
d="M442 789q-137 0 -234 93t-97 227q0 132 97 225.5t234 93.5q140 0 236.5 -93t96.5 -226q0 -134 -96.5 -227t-236.5 -93zM442 886q92 0 157.5 65t65.5 158q0 91 -65.5 155.5t-157.5 64.5q-91 0 -156 -64.5t-65 -155.5q0 -93 64.5 -158t156.5 -65z" />
    <glyph glyph-name="guillemotright" unicode="&#xbb;" horiz-adv-x="996" 
d="M83 229l311 377l-311 377h148l311 -377l-311 -377h-148zM464 229l312 377l-312 377h149l311 -377l-311 -377h-149z" />
    <glyph glyph-name="onequarter" unicode="&#xbc;" horiz-adv-x="1541" 
d="M224 486l1 804l-219 -169v117l226 170h108v-922h-116zM1018 1408h127l-794 -1408h-127zM1482 288v-93h-102v-195h-112v195h-437v90l400 637h149v-634h102zM940 288h328v534z" />
    <glyph glyph-name="onehalf" unicode="&#xbd;" horiz-adv-x="1606" 
d="M224 486l1 804l-219 -169v117l226 170h108v-922h-116zM1018 1408h127l-794 -1408h-127zM1048 95h503v-95h-626v110q208 171 313.5 273.5t138.5 159t33 113.5q0 89 -48 134t-120 44q-79 -2 -124 -51.5t-47 -127.5h-120q1 124 85 202.5t212 78.5q118 0 195 -72.5t80 -191.5
q4 -122 -97 -244t-378 -333z" />
    <glyph glyph-name="threequarters" unicode="&#xbe;" horiz-adv-x="1759" 
d="M632 767q0 -120 -85.5 -202.5t-210.5 -82.5q-123 0 -208 77.5t-85 192.5h119q0 -73 50.5 -120.5t124.5 -47.5q76 0 126 51t50 131q0 78 -51.5 126.5t-134.5 48.5h-60v96h55q67 0 108.5 41.5t41.5 107.5q0 63 -40 102.5t-100 39.5q-61 0 -100 -39t-39 -105l-117 1
q0 106 73 174.5t183 68.5q106 0 177.5 -68t71.5 -170q0 -60 -27.5 -108t-76.5 -78q72 -34 113.5 -95.5t41.5 -141.5zM1236 1408h127l-794 -1408h-127zM1700 288v-93h-102v-195h-112v195h-437v90l400 637h149v-634h102zM1158 288h328v534z" />
    <glyph glyph-name="questiondown" unicode="&#xbf;" horiz-adv-x="1037" 
d="M506 1003q47 0 81 -34t34 -82q0 -47 -34.5 -81.5t-80.5 -34.5q-47 0 -81 34.5t-34 81.5q0 48 34 82t81 34zM586 589v-125q0 -94 -47 -145.5t-152 -102.5q-131 -65 -131 -243q0 -124 72 -198.5t186 -74.5q111 0 183.5 79t72.5 200q0 37 -8 82l152 -15q7 -41 7 -86
q0 -178 -113.5 -291.5t-291.5 -113.5q-181 0 -297 115t-116 300q0 76 18.5 138t50.5 105t69.5 72t81.5 47q59 25 86.5 57t27.5 88v112h149z" />
    <glyph glyph-name="Agrave" unicode="&#xc0;" horiz-adv-x="1372" 
d="M746 1554h-119l-225 259l92 67zM1125 0l-121 337h-637l-120 -337h-187l519 1408h214l519 -1408h-187zM424 495h524l-262 733z" />
    <glyph glyph-name="Aacute" unicode="&#xc1;" horiz-adv-x="1372" 
d="M962 1813l-224 -259h-119l251 326zM1125 0l-121 337h-637l-120 -337h-187l519 1408h214l519 -1408h-187zM424 495h524l-262 733z" />
    <glyph glyph-name="Acircumflex" unicode="&#xc2;" horiz-adv-x="1372" 
d="M683 1766l-156 -212h-118l211 295h128l211 -295h-119zM1125 0l-121 337h-637l-120 -337h-187l519 1408h214l519 -1408h-187zM424 495h524l-262 733z" />
    <glyph glyph-name="Atilde" unicode="&#xc3;" horiz-adv-x="1372" 
d="M554 1717q-51 0 -80 -42.5t-29 -111.5h-94q0 107 54.5 175t147.5 68q58 0 96 -25t70 -68q36 -47 56 -59q24 -16 52 -16q51 0 78.5 40.5t27.5 110.5h97q0 -106 -54.5 -173.5t-148.5 -67.5q-61 0 -99.5 26t-70.5 70q-17 24 -27.5 36.5t-31 24.5t-44.5 12zM1125 0l-121 337
h-637l-120 -337h-187l519 1408h214l519 -1408h-187zM424 495h524l-262 733z" />
    <glyph glyph-name="Adieresis" unicode="&#xc4;" horiz-adv-x="1372" 
d="M498 1536q-48 0 -82.5 34.5t-34.5 82.5t34.5 82t82.5 34q47 0 81.5 -34t34.5 -82t-34.5 -82.5t-81.5 -34.5zM872 1536q-48 0 -82.5 34.5t-34.5 82.5t34.5 82t82.5 34q47 0 81.5 -34t34.5 -82t-34.5 -82.5t-81.5 -34.5zM1125 0l-121 337h-637l-120 -337h-187l519 1408h214
l519 -1408h-187zM424 495h524l-262 733z" />
    <glyph glyph-name="Aring" unicode="&#xc5;" horiz-adv-x="1372" 
d="M685 1554q-87 0 -149 62t-62 148q0 87 61.5 148t149.5 61q86 0 147 -61t61 -148q0 -86 -61.5 -148t-146.5 -62zM685 1892q-52 0 -88.5 -37.5t-36.5 -90.5q0 -54 36 -89.5t89 -35.5t89 35.5t36 89.5q0 53 -36.5 90.5t-88.5 37.5zM1125 0l-121 337h-637l-120 -337h-187
l519 1408h214l519 -1408h-187zM424 495h524l-262 733z" />
    <glyph glyph-name="AE" unicode="&#xc6;" horiz-adv-x="1768" 
d="M60 0l518 1408h1069v-162h-607v-462h531v-162h-531v-459h607v-163h-786v337h-494l-120 -337h-187zM422 495h439v750h-169z" />
    <glyph glyph-name="Ccedilla" unicode="&#xc7;" horiz-adv-x="1532" 
d="M824 152q152 0 272.5 70.5t184.5 199.5l165 -67q-78 -168 -232.5 -266t-351.5 -107l-58 -120q36 8 55 8q87 0 143.5 -53.5t56.5 -138.5q0 -88 -60.5 -149t-149.5 -61q-73 0 -139.5 37t-96.5 93l86 36q22 -32 65 -53.5t83 -21.5q49 0 84 34t35 85q0 54 -35 84t-90 30
q-43 0 -80 -20l-75 49l81 162q-138 9 -256 63.5t-204.5 145.5t-135 223t-48.5 290q0 165 54 301.5t148 228.5t222 142t277 50q209 0 374.5 -99t247.5 -275l-165 -68q-64 130 -184.5 200.5t-272.5 70.5q-110 0 -205 -37t-166 -106t-111.5 -174t-40.5 -234t40.5 -234.5
t111.5 -174.5t166 -106.5t205 -37.5z" />
    <glyph glyph-name="Egrave" unicode="&#xc8;" horiz-adv-x="1098" 
d="M663 1554h-119l-225 259l92 67zM976 1245h-572v-461h504v-161h-504v-460h572v-163h-755v1408h755v-163z" />
    <glyph glyph-name="Eacute" unicode="&#xc9;" horiz-adv-x="1098" 
d="M879 1813l-224 -259h-119l251 326zM976 1245h-572v-461h504v-161h-504v-460h572v-163h-755v1408h755v-163z" />
    <glyph glyph-name="Ecircumflex" unicode="&#xca;" horiz-adv-x="1098" 
d="M600 1766l-156 -212h-118l211 295h128l211 -295h-119zM976 1245h-572v-461h504v-161h-504v-460h572v-163h-755v1408h755v-163z" />
    <glyph glyph-name="Edieresis" unicode="&#xcb;" horiz-adv-x="1098" 
d="M415 1536q-48 0 -82.5 34.5t-34.5 82.5t34.5 82t82.5 34q47 0 81.5 -34t34.5 -82t-34.5 -82.5t-81.5 -34.5zM789 1536q-48 0 -82.5 34.5t-34.5 82.5t34.5 82t82.5 34q47 0 81.5 -34t34.5 -82t-34.5 -82.5t-81.5 -34.5zM976 1245h-572v-461h504v-161h-504v-460h572v-163
h-755v1408h755v-163z" />
    <glyph glyph-name="Igrave" unicode="&#xcc;" horiz-adv-x="621" 
d="M252 1554l-225 259l92 67l252 -326h-119zM221 0v1408h179v-1408h-179z" />
    <glyph glyph-name="Iacute" unicode="&#xcd;" horiz-adv-x="621" 
d="M244 1554l251 326l92 -67l-224 -259h-119zM221 0v1408h179v-1408h-179z" />
    <glyph glyph-name="Icircumflex" unicode="&#xce;" horiz-adv-x="621" 
d="M152 1554h-118l211 295h128l211 -295h-119l-157 212zM221 0v1408h179v-1408h-179z" />
    <glyph glyph-name="Idieresis" unicode="&#xcf;" horiz-adv-x="621" 
d="M123 1536q-48 0 -82.5 34.5t-34.5 82.5t34.5 82t82.5 34q47 0 81.5 -34t34.5 -82t-34.5 -82.5t-81.5 -34.5zM497 1536q-48 0 -82.5 34.5t-34.5 82.5t34.5 82t82.5 34q47 0 81.5 -34t34.5 -82t-34.5 -82.5t-81.5 -34.5zM221 0v1408h179v-1408h-179z" />
    <glyph glyph-name="Eth" unicode="&#xd0;" horiz-adv-x="1452" 
d="M675 1408q210 0 358.5 -91t220 -247.5t71.5 -364.5q0 -156 -41.5 -284.5t-121.5 -222.5t-204.5 -146t-282.5 -52h-454v647h-162v115h162v646h454zM669 163q233 0 351.5 144t118.5 398q0 252 -119 396t-351 144h-269v-483h265v-115h-265v-484h269z" />
    <glyph glyph-name="Ntilde" unicode="&#xd1;" horiz-adv-x="1566" 
d="M652 1717q-51 0 -80 -42.5t-29 -111.5h-94q0 107 54.5 175t147.5 68q58 0 96 -25t70 -68q36 -47 56 -59q24 -16 52 -16q51 0 78.5 40.5t27.5 110.5h97q0 -106 -54.5 -173.5t-148.5 -67.5q-61 0 -99.5 26t-70.5 70q-17 24 -27.5 36.5t-31 24.5t-44.5 12zM1167 1408h178
v-1408h-189l-759 1139v-1139h-176v1408h187l759 -1134v1134z" />
    <glyph glyph-name="Ograve" unicode="&#xd2;" horiz-adv-x="1646" 
d="M766 1554l-225 259l92 67l252 -326h-119zM824 -19q-149 0 -277 50.5t-222.5 142t-148 228.5t-53.5 303q0 165 54 301.5t148 228.5t222 142t277 50q147 0 275 -50.5t222 -142t148 -228t54 -301.5t-54 -302.5t-148 -229t-222 -142t-275 -50.5zM824 150q225 0 372.5 148.5
t147.5 406.5q0 129 -40.5 234t-111 174t-165 106t-203.5 37q-110 0 -205 -37t-166 -106t-111.5 -174t-40.5 -234q0 -130 40.5 -236t111.5 -175t166 -106.5t205 -37.5z" />
    <glyph glyph-name="Oacute" unicode="&#xd3;" horiz-adv-x="1646" 
d="M758 1554l251 326l92 -67l-224 -259h-119zM824 -19q-149 0 -277 50.5t-222.5 142t-148 228.5t-53.5 303q0 165 54 301.5t148 228.5t222 142t277 50q147 0 275 -50.5t222 -142t148 -228t54 -301.5t-54 -302.5t-148 -229t-222 -142t-275 -50.5zM824 150q225 0 372.5 148.5
t147.5 406.5q0 129 -40.5 234t-111 174t-165 106t-203.5 37q-110 0 -205 -37t-166 -106t-111.5 -174t-40.5 -234q0 -130 40.5 -236t111.5 -175t166 -106.5t205 -37.5z" />
    <glyph glyph-name="Ocircumflex" unicode="&#xd4;" horiz-adv-x="1646" 
d="M666 1554h-118l211 295h128l211 -295h-119l-157 212zM824 -19q-149 0 -277 50.5t-222.5 142t-148 228.5t-53.5 303q0 165 54 301.5t148 228.5t222 142t277 50q147 0 275 -50.5t222 -142t148 -228t54 -301.5t-54 -302.5t-148 -229t-222 -142t-275 -50.5zM824 150
q225 0 372.5 148.5t147.5 406.5q0 129 -40.5 234t-111 174t-165 106t-203.5 37q-110 0 -205 -37t-166 -106t-111.5 -174t-40.5 -234q0 -130 40.5 -236t111.5 -175t166 -106.5t205 -37.5z" />
    <glyph glyph-name="Otilde" unicode="&#xd5;" horiz-adv-x="1646" 
d="M966 1548q-61 0 -99.5 26t-70.5 70q-17 24 -27.5 36.5t-31 24.5t-44.5 12q-51 0 -80 -42.5t-29 -111.5h-94q0 107 54.5 175t147.5 68q58 0 96 -25t70 -68q36 -47 56 -59q24 -16 52 -16q51 0 78.5 40.5t27.5 110.5h97q0 -106 -54.5 -173.5t-148.5 -67.5zM824 -19
q-149 0 -277 50.5t-222.5 142t-148 228.5t-53.5 303q0 165 54 301.5t148 228.5t222 142t277 50q147 0 275 -50.5t222 -142t148 -228t54 -301.5t-54 -302.5t-148 -229t-222 -142t-275 -50.5zM824 150q225 0 372.5 148.5t147.5 406.5q0 129 -40.5 234t-111 174t-165 106
t-203.5 37q-110 0 -205 -37t-166 -106t-111.5 -174t-40.5 -234q0 -130 40.5 -236t111.5 -175t166 -106.5t205 -37.5z" />
    <glyph glyph-name="Odieresis" unicode="&#xd6;" horiz-adv-x="1646" 
d="M637 1536q-48 0 -82.5 34.5t-34.5 82.5t34.5 82t82.5 34q47 0 81.5 -34t34.5 -82t-34.5 -82.5t-81.5 -34.5zM1011 1536q-48 0 -82.5 34.5t-34.5 82.5t34.5 82t82.5 34q47 0 81.5 -34t34.5 -82t-34.5 -82.5t-81.5 -34.5zM824 -19q-149 0 -277 50.5t-222.5 142t-148 228.5
t-53.5 303q0 165 54 301.5t148 228.5t222 142t277 50q147 0 275 -50.5t222 -142t148 -228t54 -301.5t-54 -302.5t-148 -229t-222 -142t-275 -50.5zM824 150q225 0 372.5 148.5t147.5 406.5q0 129 -40.5 234t-111 174t-165 106t-203.5 37q-110 0 -205 -37t-166 -106
t-111.5 -174t-40.5 -234q0 -130 40.5 -236t111.5 -175t166 -106.5t205 -37.5z" />
    <glyph glyph-name="multiply" unicode="&#xd7;" horiz-adv-x="1072" 
d="M255 281l-100 102l280 280l-280 280l100 101l282 -279l278 277l102 -99l-280 -280l280 -280l-102 -101l-278 281z" />
    <glyph glyph-name="Oslash" unicode="&#xd8;" horiz-adv-x="1646" 
d="M1282 1270q114 -96 177.5 -240t63.5 -325q0 -165 -54 -302.5t-148 -229t-222 -142t-275 -50.5q-210 0 -373 96l-133 -190l-91 53l137 198q-114 95 -177.5 240t-63.5 327q0 165 54 301.5t148 228.5t222 142t277 50q208 0 371 -96l134 193l90 -57zM301 705q0 -269 164 -422
l630 904q-121 69 -271 69q-110 0 -205 -37t-166 -106t-111.5 -174t-40.5 -234zM824 150q225 0 372.5 148.5t147.5 406.5q0 266 -164 419l-630 -904q120 -70 274 -70z" />
    <glyph glyph-name="Ugrave" unicode="&#xd9;" horiz-adv-x="1409" 
d="M645 1554l-225 259l92 67l252 -326h-119zM703 -19q-224 0 -367.5 130t-143.5 356v941h179v-916q0 -170 92.5 -259t239.5 -89t241 89.5t94 258.5v916h179v-941q0 -226 -144.5 -356t-369.5 -130z" />
    <glyph glyph-name="Uacute" unicode="&#xda;" horiz-adv-x="1409" 
d="M637 1554l251 326l92 -67l-224 -259h-119zM703 -19q-224 0 -367.5 130t-143.5 356v941h179v-916q0 -170 92.5 -259t239.5 -89t241 89.5t94 258.5v916h179v-941q0 -226 -144.5 -356t-369.5 -130z" />
    <glyph glyph-name="Ucircumflex" unicode="&#xdb;" horiz-adv-x="1409" 
d="M545 1554h-118l211 295h128l211 -295h-119l-157 212zM703 -19q-224 0 -367.5 130t-143.5 356v941h179v-916q0 -170 92.5 -259t239.5 -89t241 89.5t94 258.5v916h179v-941q0 -226 -144.5 -356t-369.5 -130z" />
    <glyph glyph-name="Udieresis" unicode="&#xdc;" horiz-adv-x="1409" 
d="M516 1536q-48 0 -82.5 34.5t-34.5 82.5t34.5 82t82.5 34q47 0 81.5 -34t34.5 -82t-34.5 -82.5t-81.5 -34.5zM890 1536q-48 0 -82.5 34.5t-34.5 82.5t34.5 82t82.5 34q47 0 81.5 -34t34.5 -82t-34.5 -82.5t-81.5 -34.5zM703 -19q-224 0 -367.5 130t-143.5 356v941h179
v-916q0 -170 92.5 -259t239.5 -89t241 89.5t94 258.5v916h179v-941q0 -226 -144.5 -356t-369.5 -130z" />
    <glyph glyph-name="Yacute" unicode="&#xdd;" horiz-adv-x="1197" 
d="M876 1813l-224 -259h-119l251 326zM1152 1408l-463 -737v-671h-180v670l-464 738h204l350 -576l350 576h203z" />
    <glyph glyph-name="Thorn" unicode="&#xde;" horiz-adv-x="1211" 
d="M732 1322q161 0 273.5 -126t112.5 -307q0 -176 -112.5 -299.5t-273.5 -123.5h-338v-466h-173v1528h173v-206h338zM723 624q98 0 165.5 78.5t67.5 191.5q0 115 -67.5 192.5t-165.5 77.5h-329v-540h329z" />
    <glyph glyph-name="germandbls" unicode="&#xdf;" horiz-adv-x="1210" 
d="M176 0v1031q0 140 34 243.5t96 164t141 89t177 28.5q190 0 310 -104.5t120 -262.5q0 -59 -16.5 -106t-40 -76.5t-47 -56t-40 -58.5t-16.5 -70q0 -29 13 -55t34.5 -48t46.5 -45t50.5 -52t47 -63t34.5 -84.5t13 -111.5q0 -97 -42.5 -178.5t-127.5 -133t-196 -51.5h-192v138
h149q104 0 171 66.5t67 164.5q0 69 -24 120.5t-58.5 83.5t-68.5 62t-58 73.5t-24 101.5q0 54 16.5 96t40.5 70t48 55.5t40.5 66t16.5 86.5q0 100 -73 165.5t-191 65.5q-282 0 -282 -361v-1054h-169z" />
    <glyph glyph-name="agrave" unicode="&#xe0;" horiz-adv-x="1073" 
d="M482 1153l-225 259l92 67l252 -326h-119zM403 -19q-131 0 -215.5 67.5t-84.5 201.5q0 74 27 128.5t80 89.5t115.5 55.5t149.5 35.5l159 26q87 16 87 91q0 100 -61.5 146.5t-155.5 46.5q-92 0 -154 -45t-73 -138l-156 33q22 140 123 210.5t268 70.5q78 0 142.5 -17.5
t119 -55t85 -106t30.5 -161.5v-406q0 -76 22.5 -102.5t77.5 -26.5h16v-125h-86q-159 0 -186 133h-8q-112 -152 -322 -152zM443 121q131 0 211 95t80 260l-260 -50q-103 -17 -152.5 -54.5t-49.5 -107.5q0 -73 47.5 -108t123.5 -35z" />
    <glyph glyph-name="aacute" unicode="&#xe1;" horiz-adv-x="1073" 
d="M474 1153l251 326l92 -67l-224 -259h-119zM403 -19q-131 0 -215.5 67.5t-84.5 201.5q0 74 27 128.5t80 89.5t115.5 55.5t149.5 35.5l159 26q87 16 87 91q0 100 -61.5 146.5t-155.5 46.5q-92 0 -154 -45t-73 -138l-156 33q22 140 123 210.5t268 70.5q78 0 142.5 -17.5
t119 -55t85 -106t30.5 -161.5v-406q0 -76 22.5 -102.5t77.5 -26.5h16v-125h-86q-159 0 -186 133h-8q-112 -152 -322 -152zM443 121q131 0 211 95t80 260l-260 -50q-103 -17 -152.5 -54.5t-49.5 -107.5q0 -73 47.5 -108t123.5 -35z" />
    <glyph glyph-name="acircumflex" unicode="&#xe2;" horiz-adv-x="1073" 
d="M382 1165h-118l211 295h128l211 -295h-119l-157 212zM403 -19q-131 0 -215.5 67.5t-84.5 201.5q0 74 27 128.5t80 89.5t115.5 55.5t149.5 35.5l159 26q87 16 87 91q0 100 -61.5 146.5t-155.5 46.5q-92 0 -154 -45t-73 -138l-156 33q22 140 123 210.5t268 70.5
q78 0 142.5 -17.5t119 -55t85 -106t30.5 -161.5v-406q0 -76 22.5 -102.5t77.5 -26.5h16v-125h-86q-159 0 -186 133h-8q-112 -152 -322 -152zM443 121q131 0 211 95t80 260l-260 -50q-103 -17 -152.5 -54.5t-49.5 -107.5q0 -73 47.5 -108t123.5 -35z" />
    <glyph glyph-name="atilde" unicode="&#xe3;" horiz-adv-x="1073" 
d="M669 1144q-103 0 -164 97q-34 51 -80 51q-41 0 -64.5 -37t-23.5 -97h-96q0 101 49 165t132 64q103 0 162 -98q30 -49 82 -49q41 0 64 35.5t23 96.5h97q0 -99 -49 -163.5t-132 -64.5zM403 -19q-131 0 -215.5 67.5t-84.5 201.5q0 74 27 128.5t80 89.5t115.5 55.5
t149.5 35.5l159 26q87 16 87 91q0 100 -61.5 146.5t-155.5 46.5q-92 0 -154 -45t-73 -138l-156 33q22 140 123 210.5t268 70.5q78 0 142.5 -17.5t119 -55t85 -106t30.5 -161.5v-406q0 -76 22.5 -102.5t77.5 -26.5h16v-125h-86q-159 0 -186 133h-8q-112 -152 -322 -152z
M443 121q131 0 211 95t80 260l-260 -50q-103 -17 -152.5 -54.5t-49.5 -107.5q0 -73 47.5 -108t123.5 -35z" />
    <glyph glyph-name="adieresis" unicode="&#xe4;" horiz-adv-x="1073" 
d="M353 1214q-48 0 -82.5 34.5t-34.5 82.5t34.5 82t82.5 34q47 0 81.5 -34t34.5 -82t-34.5 -82.5t-81.5 -34.5zM727 1214q-48 0 -82.5 34.5t-34.5 82.5t34.5 82t82.5 34q47 0 81.5 -34t34.5 -82t-34.5 -82.5t-81.5 -34.5zM403 -19q-131 0 -215.5 67.5t-84.5 201.5
q0 74 27 128.5t80 89.5t115.5 55.5t149.5 35.5l159 26q87 16 87 91q0 100 -61.5 146.5t-155.5 46.5q-92 0 -154 -45t-73 -138l-156 33q22 140 123 210.5t268 70.5q78 0 142.5 -17.5t119 -55t85 -106t30.5 -161.5v-406q0 -76 22.5 -102.5t77.5 -26.5h16v-125h-86
q-159 0 -186 133h-8q-112 -152 -322 -152zM443 121q131 0 211 95t80 260l-260 -50q-103 -17 -152.5 -54.5t-49.5 -107.5q0 -73 47.5 -108t123.5 -35z" />
    <glyph glyph-name="aring" unicode="&#xe5;" horiz-adv-x="1073" 
d="M540 1116q-87 0 -149 62.5t-62 148.5q0 87 61.5 148t149.5 61q86 0 147 -61t61 -148q0 -86 -61.5 -148.5t-146.5 -62.5zM540 1202q53 0 89 35.5t36 89.5q0 52 -36.5 90t-88.5 38t-88.5 -38t-36.5 -90q0 -54 36 -89.5t89 -35.5zM403 -19q-131 0 -215.5 67.5t-84.5 201.5
q0 74 27 128.5t80 89.5t115.5 55.5t149.5 35.5l159 26q87 16 87 91q0 100 -61.5 146.5t-155.5 46.5q-92 0 -154 -45t-73 -138l-156 33q22 140 123 210.5t268 70.5q78 0 142.5 -17.5t119 -55t85 -106t30.5 -161.5v-406q0 -76 22.5 -102.5t77.5 -26.5h16v-125h-86
q-159 0 -186 133h-8q-112 -152 -322 -152zM443 121q131 0 211 95t80 260l-260 -50q-103 -17 -152.5 -54.5t-49.5 -107.5q0 -73 47.5 -108t123.5 -35z" />
    <glyph glyph-name="ae" unicode="&#xe6;" horiz-adv-x="1738" 
d="M1643 511l-3 -50h-768q5 -162 95.5 -249t223.5 -87q90 0 162.5 47t112.5 130l156 -33q-55 -136 -169 -212t-263 -76q-127 0 -229.5 49.5t-166.5 142.5h-12q-83 -108 -173.5 -150t-201.5 -42q-135 0 -219.5 67.5t-84.5 201.5q0 74 27 128.5t80 89.5t115.5 55.5t149.5 35.5
l159 26q87 16 87 91q0 100 -61.5 146.5t-155.5 46.5q-92 0 -154 -45t-73 -138l-156 33q22 140 123 210.5t268 70.5q232 0 321 -142q135 144 355 144q205 0 329.5 -126t125.5 -365zM1185 872q-114 0 -195 -65t-107 -188v-31h586q-8 138 -83.5 211t-200.5 73zM453 121
q86 0 156.5 51t119.5 139q-24 78 -25 167l-218 -40q-108 -18 -160 -56.5t-52 -111.5q0 -75 49.5 -112t129.5 -37z" />
    <glyph glyph-name="ccedilla" unicode="&#xe7;" horiz-adv-x="1113" 
d="M583 127q101 0 178 54t111 153l162 -27q-43 -145 -156 -230.5t-265 -93.5l-58 -121q36 8 55 8q87 0 143.5 -53.5t56.5 -138.5q0 -88 -60.5 -149t-149.5 -61q-73 0 -139.5 37t-96.5 93l86 36q22 -32 65 -53.5t83 -21.5q49 0 84 34t35 85q0 54 -35 84t-90 30q-43 0 -80 -20
l-75 49l83 165q-189 21 -308 159t-119 347q0 228 138.5 369t352.5 141q164 0 284.5 -86t165.5 -239l-162 -26q-34 99 -111 153t-178 54q-138 0 -227.5 -101t-89.5 -265t89.5 -264.5t227.5 -100.5z" />
    <glyph glyph-name="egrave" unicode="&#xe8;" horiz-adv-x="1131" 
d="M648 1156h-119l-225 259l92 67zM1036 511l-2 -47h-768q4 -164 94 -251.5t224 -87.5q90 0 163 47t112 130l156 -33q-53 -134 -168 -211t-261 -77q-219 0 -354 137t-135 374q0 236 135.5 373t348.5 137q206 0 330.5 -126t124.5 -365zM581 869q-122 0 -204.5 -69.5
t-103.5 -202.5h589q-10 133 -86 202.5t-195 69.5z" />
    <glyph glyph-name="eacute" unicode="&#xe9;" horiz-adv-x="1131" 
d="M864 1415l-224 -259h-119l251 326zM1036 511l-2 -47h-768q4 -164 94 -251.5t224 -87.5q90 0 163 47t112 130l156 -33q-53 -134 -168 -211t-261 -77q-219 0 -354 137t-135 374q0 236 135.5 373t348.5 137q206 0 330.5 -126t124.5 -365zM581 869q-122 0 -204.5 -69.5
t-103.5 -202.5h589q-10 133 -86 202.5t-195 69.5z" />
    <glyph glyph-name="ecircumflex" unicode="&#xea;" horiz-adv-x="1131" 
d="M585 1380l-156 -212h-118l211 295h128l211 -295h-119zM1036 511l-2 -47h-768q4 -164 94 -251.5t224 -87.5q90 0 163 47t112 130l156 -33q-53 -134 -168 -211t-261 -77q-219 0 -354 137t-135 374q0 236 135.5 373t348.5 137q206 0 330.5 -126t124.5 -365zM581 869
q-122 0 -204.5 -69.5t-103.5 -202.5h589q-10 133 -86 202.5t-195 69.5z" />
    <glyph glyph-name="edieresis" unicode="&#xeb;" horiz-adv-x="1131" 
d="M400 1217q-48 0 -82.5 34.5t-34.5 82.5t34.5 82t82.5 34q47 0 81.5 -34t34.5 -82t-34.5 -82.5t-81.5 -34.5zM774 1217q-48 0 -82.5 34.5t-34.5 82.5t34.5 82t82.5 34q47 0 81.5 -34t34.5 -82t-34.5 -82.5t-81.5 -34.5zM1036 511l-2 -47h-768q4 -164 94 -251.5t224 -87.5
q90 0 163 47t112 130l156 -33q-53 -134 -168 -211t-261 -77q-219 0 -354 137t-135 374q0 236 135.5 373t348.5 137q206 0 330.5 -126t124.5 -365zM581 869q-122 0 -204.5 -69.5t-103.5 -202.5h589q-10 133 -86 202.5t-195 69.5z" />
    <glyph glyph-name="igrave" unicode="&#xec;" horiz-adv-x="526" 
d="M206 1153l-225 259l92 67l252 -326h-119zM176 0v983h174v-983h-174z" />
    <glyph glyph-name="iacute" unicode="&#xed;" horiz-adv-x="526" 
d="M198 1153l251 326l92 -67l-224 -259h-119zM176 0v983h174v-983h-174z" />
    <glyph glyph-name="icircumflex" unicode="&#xee;" horiz-adv-x="526" 
d="M106 1165h-118l211 295h128l211 -295h-119l-157 212zM176 0v983h174v-983h-174z" />
    <glyph glyph-name="idieresis" unicode="&#xef;" horiz-adv-x="526" 
d="M77 1214q-48 0 -82.5 34.5t-34.5 82.5t34.5 82t82.5 34q47 0 81.5 -34t34.5 -82t-34.5 -82.5t-81.5 -34.5zM451 1214q-48 0 -82.5 34.5t-34.5 82.5t34.5 82t82.5 34q47 0 81.5 -34t34.5 -82t-34.5 -82.5t-81.5 -34.5zM176 0v983h174v-983h-174z" />
    <glyph glyph-name="eth" unicode="&#xf0;" horiz-adv-x="1164" 
d="M951 840q122 -169 121 -356q-1 -147 -67 -262.5t-177.5 -177.5t-248.5 -62q-99 0 -188.5 37.5t-156 103.5t-104.5 163.5t-37 210.5q3 223 130.5 357.5t309.5 144.5q76 2 143 -24l-198 263l-274 -71l-18 68l246 64l-178 237h189l144 -197l266 69l19 -69l-240 -62zM908 491
q2 151 -89.5 256t-232.5 105q-140 0 -230.5 -94.5t-93.5 -258.5q-2 -163 89.5 -259.5t232.5 -96.5q143 0 232.5 92.5t91.5 255.5z" />
    <glyph glyph-name="ntilde" unicode="&#xf1;" horiz-adv-x="1138" 
d="M452 1292q-41 0 -64.5 -37t-23.5 -97h-96q0 101 49 165t132 64q103 0 162 -98q30 -49 82 -49q41 0 64 35.5t23 96.5h97q0 -99 -49 -163.5t-132 -64.5q-103 0 -164 97q-34 51 -80 51zM640 1002q155 0 247.5 -89t92.5 -251v-662h-173v623q0 119 -60 176t-154 57
q-107 0 -175 -67.5t-69 -200.5v-588h-173v983h173v-126q98 145 291 145z" />
    <glyph glyph-name="ograve" unicode="&#xf2;" horiz-adv-x="1180" 
d="M532 1152l-225 259l92 67l252 -326h-119zM590 -19q-140 0 -252 61t-177.5 178.5t-65.5 271.5q0 231 139.5 370.5t355.5 139.5q217 0 356 -139.5t139 -370.5q0 -232 -139.5 -371.5t-355.5 -139.5zM589 125q140 0 232.5 101t92.5 266q0 164 -92.5 265t-232.5 101
q-139 0 -230.5 -101t-91.5 -265q0 -165 91.5 -266t230.5 -101z" />
    <glyph glyph-name="oacute" unicode="&#xf3;" horiz-adv-x="1180" 
d="M524 1152l251 326l92 -67l-224 -259h-119zM590 -19q-140 0 -252 61t-177.5 178.5t-65.5 271.5q0 231 139.5 370.5t355.5 139.5q217 0 356 -139.5t139 -370.5q0 -232 -139.5 -371.5t-355.5 -139.5zM589 125q140 0 232.5 101t92.5 266q0 164 -92.5 265t-232.5 101
q-139 0 -230.5 -101t-91.5 -265q0 -165 91.5 -266t230.5 -101z" />
    <glyph glyph-name="ocircumflex" unicode="&#xf4;" horiz-adv-x="1180" 
d="M432 1164h-118l211 295h128l211 -295h-119l-157 212zM590 -19q-140 0 -252 61t-177.5 178.5t-65.5 271.5q0 231 139.5 370.5t355.5 139.5q217 0 356 -139.5t139 -370.5q0 -232 -139.5 -371.5t-355.5 -139.5zM589 125q140 0 232.5 101t92.5 266q0 164 -92.5 265
t-232.5 101q-139 0 -230.5 -101t-91.5 -265q0 -165 91.5 -266t230.5 -101z" />
    <glyph glyph-name="otilde" unicode="&#xf5;" horiz-adv-x="1180" 
d="M719 1143q-103 0 -164 97q-34 51 -80 51q-41 0 -64.5 -37t-23.5 -97h-96q0 101 49 165t132 64q103 0 162 -98q30 -49 82 -49q41 0 64 35.5t23 96.5h97q0 -99 -49 -163.5t-132 -64.5zM590 -19q-140 0 -252 61t-177.5 178.5t-65.5 271.5q0 231 139.5 370.5t355.5 139.5
q217 0 356 -139.5t139 -370.5q0 -232 -139.5 -371.5t-355.5 -139.5zM589 125q140 0 232.5 101t92.5 266q0 164 -92.5 265t-232.5 101q-139 0 -230.5 -101t-91.5 -265q0 -165 91.5 -266t230.5 -101z" />
    <glyph glyph-name="odieresis" unicode="&#xf6;" horiz-adv-x="1180" 
d="M403 1213q-48 0 -82.5 34.5t-34.5 82.5t34.5 82t82.5 34q47 0 81.5 -34t34.5 -82t-34.5 -82.5t-81.5 -34.5zM777 1213q-48 0 -82.5 34.5t-34.5 82.5t34.5 82t82.5 34q47 0 81.5 -34t34.5 -82t-34.5 -82.5t-81.5 -34.5zM590 -19q-140 0 -252 61t-177.5 178.5t-65.5 271.5
q0 231 139.5 370.5t355.5 139.5q217 0 356 -139.5t139 -370.5q0 -232 -139.5 -371.5t-355.5 -139.5zM589 125q140 0 232.5 101t92.5 266q0 164 -92.5 265t-232.5 101q-139 0 -230.5 -101t-91.5 -265q0 -165 91.5 -266t230.5 -101z" />
    <glyph glyph-name="divide" unicode="&#xf7;" horiz-adv-x="1026" 
d="M507 934q-44 0 -77 32.5t-33 78.5q0 44 33.5 77.5t76.5 33.5q45 0 79 -33.5t34 -77.5q0 -47 -33.5 -79t-79.5 -32zM130 611v142h763v-142h-763zM507 208q-44 0 -77 32.5t-33 80.5q0 43 33 76t77 33q45 0 79 -33t34 -76q0 -48 -33.5 -80.5t-79.5 -32.5z" />
    <glyph glyph-name="oslash" unicode="&#xf8;" horiz-adv-x="1180" 
d="M924 883q161 -142 161 -391q0 -232 -139.5 -371.5t-355.5 -139.5q-138 0 -253 62l-111 -159l-85 52l115 165q-161 142 -161 391q0 231 139.5 370.5t355.5 139.5q142 0 252 -61l111 158l85 -52zM267 492q0 -155 83 -256l404 577q-74 45 -165 45q-139 0 -230.5 -101
t-91.5 -265zM589 125q140 0 232.5 101t92.5 266q0 155 -85 256l-403 -578q73 -45 163 -45z" />
    <glyph glyph-name="ugrave" unicode="&#xf9;" horiz-adv-x="1137" 
d="M632 1153h-119l-225 259l92 67zM788 983h173v-983h-166l-4 130q-46 -72 -122 -110.5t-172 -38.5q-155 0 -247.5 89t-92.5 251v662h173v-623q0 -118 60.5 -176t154.5 -58q107 0 174.5 68t68.5 201v588z" />
    <glyph glyph-name="uacute" unicode="&#xfa;" horiz-adv-x="1137" 
d="M848 1412l-224 -259h-119l251 326zM788 983h173v-983h-166l-4 130q-46 -72 -122 -110.5t-172 -38.5q-155 0 -247.5 89t-92.5 251v662h173v-623q0 -118 60.5 -176t154.5 -58q107 0 174.5 68t68.5 201v588z" />
    <glyph glyph-name="ucircumflex" unicode="&#xfb;" horiz-adv-x="1137" 
d="M569 1377l-156 -212h-118l211 295h128l211 -295h-119zM788 983h173v-983h-166l-4 130q-46 -72 -122 -110.5t-172 -38.5q-155 0 -247.5 89t-92.5 251v662h173v-623q0 -118 60.5 -176t154.5 -58q107 0 174.5 68t68.5 201v588z" />
    <glyph glyph-name="udieresis" unicode="&#xfc;" horiz-adv-x="1137" 
d="M384 1214q-48 0 -82.5 34.5t-34.5 82.5t34.5 82t82.5 34q47 0 81.5 -34t34.5 -82t-34.5 -82.5t-81.5 -34.5zM758 1214q-48 0 -82.5 34.5t-34.5 82.5t34.5 82t82.5 34q47 0 81.5 -34t34.5 -82t-34.5 -82.5t-81.5 -34.5zM788 983h173v-983h-166l-4 130q-46 -72 -122 -110.5
t-172 -38.5q-155 0 -247.5 89t-92.5 251v662h173v-623q0 -118 60.5 -176t154.5 -58q107 0 174.5 68t68.5 201v588z" />
    <glyph glyph-name="yacute" unicode="&#xfd;" horiz-adv-x="997" 
d="M777 1412l-224 -259h-119l251 326zM782 983h183l-569 -1446h-179l197 487l-382 959h192l277 -765z" />
    <glyph glyph-name="thorn" unicode="&#xfe;" horiz-adv-x="1251" 
d="M695 1002q94 0 178 -36t146 -101t98.5 -162t36.5 -212q0 -230 -132.5 -371t-326.5 -141q-113 0 -205.5 56t-140.5 151v-681h-173v2031h173v-740q48 95 140.5 150.5t205.5 55.5zM661 129q135 0 227.5 99.5t92.5 262.5t-92.5 262t-227.5 99q-137 0 -231 -103.5t-94 -257.5
q0 -155 94 -258.5t231 -103.5z" />
    <glyph glyph-name="ydieresis" unicode="&#xff;" horiz-adv-x="997" 
d="M313 1214q-48 0 -82.5 34.5t-34.5 82.5t34.5 82t82.5 34q47 0 81.5 -34t34.5 -82t-34.5 -82.5t-81.5 -34.5zM687 1214q-48 0 -82.5 34.5t-34.5 82.5t34.5 82t82.5 34q47 0 81.5 -34t34.5 -82t-34.5 -82.5t-81.5 -34.5zM782 983h183l-569 -1446h-179l197 487l-382 959h192
l277 -765z" />
    <glyph glyph-name="Amacron" unicode="&#x100;" horiz-adv-x="1372" 
d="M1008 1664v-110h-647v110h647zM1125 0l-121 337h-637l-120 -337h-187l519 1408h214l519 -1408h-187zM424 495h524l-262 733z" />
    <glyph glyph-name="amacron" unicode="&#x101;" horiz-adv-x="1073" 
d="M216 1178v111h647v-111h-647zM403 -19q-131 0 -215.5 67.5t-84.5 201.5q0 74 27 128.5t80 89.5t115.5 55.5t149.5 35.5l159 26q87 16 87 91q0 100 -61.5 146.5t-155.5 46.5q-92 0 -154 -45t-73 -138l-156 33q22 140 123 210.5t268 70.5q78 0 142.5 -17.5t119 -55t85 -106
t30.5 -161.5v-406q0 -76 22.5 -102.5t77.5 -26.5h16v-125h-86q-159 0 -186 133h-8q-112 -152 -322 -152zM443 121q131 0 211 95t80 260l-260 -50q-103 -17 -152.5 -54.5t-49.5 -107.5q0 -73 47.5 -108t123.5 -35z" />
    <glyph glyph-name="Abreve" unicode="&#x102;" horiz-adv-x="1372" 
d="M683 1554q-155 0 -246.5 67t-91.5 203h107q0 -91 62.5 -135.5t168.5 -44.5q108 0 171 44.5t63 135.5h107q0 -137 -92 -203.5t-249 -66.5zM1125 0l-121 337h-637l-120 -337h-187l519 1408h214l519 -1408h-187zM424 495h524l-262 733z" />
    <glyph glyph-name="abreve" unicode="&#x103;" horiz-adv-x="1073" 
d="M538 1143q-149 0 -243.5 86t-94.5 231h113q0 -99 62.5 -162.5t162.5 -63.5q102 0 165 63t63 163h113q0 -145 -95 -231t-246 -86zM403 -19q-131 0 -215.5 67.5t-84.5 201.5q0 74 27 128.5t80 89.5t115.5 55.5t149.5 35.5l159 26q87 16 87 91q0 100 -61.5 146.5
t-155.5 46.5q-92 0 -154 -45t-73 -138l-156 33q22 140 123 210.5t268 70.5q78 0 142.5 -17.5t119 -55t85 -106t30.5 -161.5v-406q0 -76 22.5 -102.5t77.5 -26.5h16v-125h-86q-159 0 -186 133h-8q-112 -152 -322 -152zM443 121q131 0 211 95t80 260l-260 -50
q-103 -17 -152.5 -54.5t-49.5 -107.5q0 -73 47.5 -108t123.5 -35z" />
    <glyph glyph-name="Aogonek" unicode="&#x104;" horiz-adv-x="1372" 
d="M1144 -228q0 -43 75 -43q52 0 93 30v-127q-46 -18 -108 -18q-86 0 -130.5 24.5t-44.5 69.5q0 94 194 292h-98l-121 337h-637l-120 -337h-187l519 1408h214l519 -1408q-5 -5 -24.5 -25t-31 -32t-31 -33.5t-31.5 -37.5t-25 -35t-19 -35.5t-6 -29.5zM424 495h524l-262 733z
" />
    <glyph glyph-name="aogonek" unicode="&#x105;" horiz-adv-x="1073" 
d="M1005 125v-125q-5 -5 -24.5 -25t-31 -32t-31 -33.5t-31.5 -37.5t-25 -35t-19 -35.5t-6 -29.5q0 -43 75 -43q52 0 93 30v-127q-47 -18 -108 -18q-86 0 -130.5 24.5t-44.5 69.5q0 94 194 292q-156 2 -183 133h-8q-112 -152 -322 -152q-131 0 -215.5 67.5t-84.5 201.5
q0 74 27 128.5t80 89.5t115.5 55.5t149.5 35.5l159 26q87 16 87 91q0 100 -61.5 146.5t-155.5 46.5q-92 0 -154 -45t-73 -138l-156 33q22 140 123 210.5t268 70.5q78 0 142.5 -17.5t119 -55t85 -106t30.5 -161.5v-406q0 -76 22.5 -102.5t77.5 -26.5h16zM443 121
q131 0 211 95t80 260l-260 -50q-103 -17 -152.5 -54.5t-49.5 -107.5q0 -73 47.5 -108t123.5 -35z" />
    <glyph glyph-name="Cacute" unicode="&#x106;" horiz-adv-x="1532" 
d="M758 1554l251 326l92 -67l-224 -259h-119zM824 -19q-149 0 -277 50.5t-222.5 142t-148 228.5t-53.5 303q0 165 54 301.5t148 228.5t222 142t277 50q209 0 374.5 -99t247.5 -275l-165 -68q-64 130 -184.5 200.5t-272.5 70.5q-110 0 -205 -37t-166 -106t-111.5 -174
t-40.5 -234t40.5 -234.5t111.5 -174.5t166 -106.5t205 -37.5q152 0 272.5 70.5t184.5 199.5l165 -67q-82 -177 -247 -275.5t-375 -98.5z" />
    <glyph glyph-name="cacute" unicode="&#x107;" horiz-adv-x="1113" 
d="M509 1153l251 326l92 -67l-224 -259h-119zM584 -18q-213 0 -352 141t-139 369t138.5 369t352.5 141q164 0 284.5 -86t165.5 -239l-162 -26q-34 99 -111 153t-178 54q-138 0 -227.5 -101t-89.5 -265t89.5 -264.5t227.5 -100.5q101 0 178 54t111 153l162 -27
q-45 -152 -166.5 -238.5t-283.5 -86.5z" />
    <glyph glyph-name="Cdotaccent" unicode="&#x10a;" horiz-adv-x="1532" 
d="M824 1536q-48 0 -82.5 34.5t-34.5 82.5t34.5 82t82.5 34q47 0 81.5 -34t34.5 -82t-34.5 -82.5t-81.5 -34.5zM824 -19q-149 0 -277 50.5t-222.5 142t-148 228.5t-53.5 303q0 165 54 301.5t148 228.5t222 142t277 50q209 0 374.5 -99t247.5 -275l-165 -68
q-64 130 -184.5 200.5t-272.5 70.5q-110 0 -205 -37t-166 -106t-111.5 -174t-40.5 -234t40.5 -234.5t111.5 -174.5t166 -106.5t205 -37.5q152 0 272.5 70.5t184.5 199.5l165 -67q-82 -177 -247 -275.5t-375 -98.5z" />
    <glyph glyph-name="cdotaccent" unicode="&#x10b;" horiz-adv-x="1113" 
d="M575 1214q-48 0 -82.5 34.5t-34.5 82.5t34.5 82t82.5 34q47 0 81.5 -34t34.5 -82t-34.5 -82.5t-81.5 -34.5zM584 -18q-213 0 -352 141t-139 369t138.5 369t352.5 141q164 0 284.5 -86t165.5 -239l-162 -26q-34 99 -111 153t-178 54q-138 0 -227.5 -101t-89.5 -265
t89.5 -264.5t227.5 -100.5q101 0 178 54t111 153l162 -27q-45 -152 -166.5 -238.5t-283.5 -86.5z" />
    <glyph glyph-name="Ccaron" unicode="&#x10c;" horiz-adv-x="1532" 
d="M760 1554l-211 295h117l157 -214l156 214h119l-211 -295h-127zM824 -19q-149 0 -277 50.5t-222.5 142t-148 228.5t-53.5 303q0 165 54 301.5t148 228.5t222 142t277 50q209 0 374.5 -99t247.5 -275l-165 -68q-64 130 -184.5 200.5t-272.5 70.5q-110 0 -205 -37t-166 -106
t-111.5 -174t-40.5 -234t40.5 -234.5t111.5 -174.5t166 -106.5t205 -37.5q152 0 272.5 70.5t184.5 199.5l165 -67q-82 -177 -247 -275.5t-375 -98.5z" />
    <glyph glyph-name="ccaron" unicode="&#x10d;" horiz-adv-x="1113" 
d="M511 1165l-211 295h117l157 -214l156 214h119l-211 -295h-127zM584 -18q-213 0 -352 141t-139 369t138.5 369t352.5 141q164 0 284.5 -86t165.5 -239l-162 -26q-34 99 -111 153t-178 54q-138 0 -227.5 -101t-89.5 -265t89.5 -264.5t227.5 -100.5q101 0 178 54t111 153
l162 -27q-45 -152 -166.5 -238.5t-283.5 -86.5z" />
    <glyph glyph-name="Dcaron" unicode="&#x10e;" horiz-adv-x="1452" 
d="M540 1554l-211 295h117l157 -214l156 214h119l-211 -295h-127zM221 0v1408h454q210 0 358.5 -91t220 -247.5t71.5 -364.5q0 -156 -41.5 -284.5t-121.5 -222.5t-204.5 -146t-282.5 -52h-454zM400 163h269q233 0 351.5 144t118.5 398q0 252 -119 396t-351 144h-269v-1082z
" />
    <glyph glyph-name="dcaron" unicode="&#x10f;" horiz-adv-x="1389" 
d="M541 -19q-189 0 -316 141.5t-127 370.5q0 228 127.5 369.5t315.5 141.5q111 0 203.5 -56.5t148.5 -154.5l1 743h172v-1536h-173v193q-56 -98 -148.5 -155t-203.5 -57zM1227 916l124 620h181l-177 -620h-128zM592 131q135 0 226.5 103.5t91.5 258.5q0 154 -92 258
t-226 104q-137 0 -229 -100.5t-92 -261.5t92 -261.5t229 -100.5z" />
    <glyph glyph-name="Dcroat" unicode="&#x110;" horiz-adv-x="1452" 
d="M675 1408q210 0 358.5 -91t220 -247.5t71.5 -364.5q0 -156 -41.5 -284.5t-121.5 -222.5t-204.5 -146t-282.5 -52h-454v647h-162v115h162v646h454zM669 163q233 0 351.5 144t118.5 398q0 252 -119 396t-351 144h-269v-483h265v-115h-265v-484h269z" />
    <glyph glyph-name="dcroat" unicode="&#x111;" horiz-adv-x="1251" 
d="M1236 1304v-115h-161v-1189h-167l-4 191q-47 -98 -140 -155t-208 -57q-94 0 -178 36.5t-146.5 102t-99 162.5t-36.5 211q0 227 133.5 369t326.5 142q113 0 205.5 -55.5t140.5 -150.5v393h-272v115h272v232h173v-232h161zM592 129q136 0 228.5 103.5t92.5 258.5
q0 154 -93 258t-228 104q-137 0 -230 -100.5t-93 -261.5t93 -261.5t230 -100.5z" />
    <glyph glyph-name="Emacron" unicode="&#x112;" horiz-adv-x="1098" 
d="M925 1664v-110h-647v110h647zM976 1245h-572v-461h504v-161h-504v-460h572v-163h-755v1408h755v-163z" />
    <glyph glyph-name="emacron" unicode="&#x113;" horiz-adv-x="1131" 
d="M910 1292v-111h-647v111h647zM1036 511l-2 -47h-768q4 -164 94 -251.5t224 -87.5q90 0 163 47t112 130l156 -33q-53 -134 -168 -211t-261 -77q-219 0 -354 137t-135 374q0 236 135.5 373t348.5 137q206 0 330.5 -126t124.5 -365zM581 869q-122 0 -204.5 -69.5
t-103.5 -202.5h589q-10 133 -86 202.5t-195 69.5z" />
    <glyph glyph-name="Edotaccent" unicode="&#x116;" horiz-adv-x="1098" 
d="M602 1536q-48 0 -82.5 34.5t-34.5 82.5t34.5 82t82.5 34q47 0 81.5 -34t34.5 -82t-34.5 -82.5t-81.5 -34.5zM976 1245h-572v-461h504v-161h-504v-460h572v-163h-755v1408h755v-163z" />
    <glyph glyph-name="edotaccent" unicode="&#x117;" horiz-adv-x="1131" 
d="M587 1217q-48 0 -82.5 34.5t-34.5 82.5t34.5 82t82.5 34q47 0 81.5 -34t34.5 -82t-34.5 -82.5t-81.5 -34.5zM1036 511l-2 -47h-768q4 -164 94 -251.5t224 -87.5q90 0 163 47t112 130l156 -33q-53 -134 -168 -211t-261 -77q-219 0 -354 137t-135 374q0 236 135.5 373
t348.5 137q206 0 330.5 -126t124.5 -365zM581 869q-122 0 -204.5 -69.5t-103.5 -202.5h589q-10 133 -86 202.5t-195 69.5z" />
    <glyph glyph-name="Eogonek" unicode="&#x118;" horiz-adv-x="1098" 
d="M976 1245h-572v-461h504v-161h-504v-460h572v-163q-5 -5 -24.5 -25t-31 -32t-31 -33.5t-31.5 -37.5t-25 -35t-19 -35.5t-6 -29.5q0 -43 75 -43q52 0 93 30v-127q-47 -18 -108 -18q-86 0 -130.5 24.5t-44.5 69.5q0 94 194 292h-666v1408h755v-163z" />
    <glyph glyph-name="eogonek" unicode="&#x119;" horiz-adv-x="1131" 
d="M1036 511l-2 -47h-768q4 -164 94 -251.5t224 -87.5q90 0 163 47t112 130l156 -33q-30 -76 -81 -134h1l-3 -3t-3.5 -4t-3.5 -3q-9 -10 -19 -19q-39 -41 -63 -67.5t-50 -66.5t-26 -65q0 -43 75 -43q52 0 93 30v-127q-46 -18 -108 -18q-86 0 -130.5 24.5t-44.5 69.5
q0 59 76 159q-66 -21 -142 -21q-219 0 -354 137t-135 374q0 236 135.5 373t348.5 137q206 0 330.5 -126t124.5 -365zM581 869q-122 0 -204.5 -69.5t-103.5 -202.5h589q-10 133 -86 202.5t-195 69.5z" />
    <glyph glyph-name="Ecaron" unicode="&#x11a;" horiz-adv-x="1098" 
d="M665 1554h-127l-211 295h117l157 -214l156 214h119zM976 1245h-572v-461h504v-161h-504v-460h572v-163h-755v1408h755v-163z" />
    <glyph glyph-name="ecaron" unicode="&#x11b;" horiz-adv-x="1131" 
d="M650 1168h-127l-211 295h117l157 -214l156 214h119zM1036 511l-2 -47h-768q4 -164 94 -251.5t224 -87.5q90 0 163 47t112 130l156 -33q-53 -134 -168 -211t-261 -77q-219 0 -354 137t-135 374q0 236 135.5 373t348.5 137q206 0 330.5 -126t124.5 -365zM581 869
q-122 0 -204.5 -69.5t-103.5 -202.5h589q-10 133 -86 202.5t-195 69.5z" />
    <glyph glyph-name="Gbreve" unicode="&#x11e;" horiz-adv-x="1630" 
d="M813 1554q-155 0 -246.5 67t-91.5 203h107q0 -91 62.5 -135.5t168.5 -44.5q108 0 171 44.5t63 135.5h107q0 -137 -92 -203.5t-249 -66.5zM819 -19q-147 0 -274.5 49.5t-221 140t-147 227t-53.5 302.5q0 222 93 389t251 252.5t357 85.5q194 0 351 -84t247 -244l-158 -85
q-67 123 -182 185.5t-258 62.5q-110 0 -205 -37t-165.5 -106.5t-110.5 -176.5t-40 -239q0 -131 39.5 -237t110 -176.5t167 -108t209.5 -37.5q194 0 322.5 109.5t151.5 312.5h-475v152h650v-718h-147v264q-70 -136 -201.5 -209.5t-310.5 -73.5z" />
    <glyph glyph-name="gbreve" unicode="&#x11f;" horiz-adv-x="1232" 
d="M576 1143q-149 0 -243.5 86t-94.5 231h113q0 -99 62.5 -162.5t162.5 -63.5q102 0 165 63t63 163h113q0 -145 -95 -231t-246 -86zM888 983h168v-933q0 -249 -127 -383t-352 -134q-357 0 -477 301l143 70q87 -227 329 -227q151 0 230.5 96t79.5 268v182
q-46 -88 -140 -141.5t-205 -53.5q-187 0 -318 138.5t-131 349.5t131.5 348.5t319.5 137.5q113 0 206 -55t139 -145zM576 175q133 0 226.5 101t93.5 240q0 140 -93 241t-227 101t-226.5 -98t-92.5 -244q0 -144 93.5 -242.5t225.5 -98.5z" />
    <glyph glyph-name="Gdotaccent" unicode="&#x120;" horiz-adv-x="1630" 
d="M815 1536q-48 0 -82.5 34.5t-34.5 82.5t34.5 82t82.5 34q47 0 81.5 -34t34.5 -82t-34.5 -82.5t-81.5 -34.5zM819 -19q-147 0 -274.5 49.5t-221 140t-147 227t-53.5 302.5q0 222 93 389t251 252.5t357 85.5q194 0 351 -84t247 -244l-158 -85q-67 123 -182 185.5t-258 62.5
q-110 0 -205 -37t-165.5 -106.5t-110.5 -176.5t-40 -239q0 -131 39.5 -237t110 -176.5t167 -108t209.5 -37.5q194 0 322.5 109.5t151.5 312.5h-475v152h650v-718h-147v264q-70 -136 -201.5 -209.5t-310.5 -73.5z" />
    <glyph glyph-name="gdotaccent" unicode="&#x121;" horiz-adv-x="1232" 
d="M578 1214q-48 0 -82.5 34.5t-34.5 82.5t34.5 82t82.5 34q47 0 81.5 -34t34.5 -82t-34.5 -82.5t-81.5 -34.5zM888 983h168v-933q0 -249 -127 -383t-352 -134q-357 0 -477 301l143 70q87 -227 329 -227q151 0 230.5 96t79.5 268v182q-46 -88 -140 -141.5t-205 -53.5
q-187 0 -318 138.5t-131 349.5t131.5 348.5t319.5 137.5q113 0 206 -55t139 -145zM576 175q133 0 226.5 101t93.5 240q0 140 -93 241t-227 101t-226.5 -98t-92.5 -244q0 -144 93.5 -242.5t225.5 -98.5z" />
    <glyph glyph-name="Gcommaaccent" unicode="&#x122;" horiz-adv-x="1630" 
d="M819 -19q-147 0 -274.5 49.5t-221 140t-147 227t-53.5 302.5q0 222 93 389t251 252.5t357 85.5q194 0 351 -84t247 -244l-158 -85q-67 123 -182 185.5t-258 62.5q-110 0 -205 -37t-165.5 -106.5t-110.5 -176.5t-40 -239q0 -131 39.5 -237t110 -176.5t167 -108
t209.5 -37.5q194 0 322.5 109.5t151.5 312.5h-475v152h650v-718h-147v264q-70 -136 -201.5 -209.5t-310.5 -73.5zM666 -559l-92 41l160 366h158z" />
    <glyph glyph-name="gcommaaccent" unicode="&#x123;" horiz-adv-x="1232" 
d="M733 1453l-122 -306h-181l177 306h126zM888 983h168v-933q0 -249 -127 -383t-352 -134q-357 0 -477 301l143 70q87 -227 329 -227q151 0 230.5 96t79.5 268v182q-46 -88 -140 -141.5t-205 -53.5q-187 0 -318 138.5t-131 349.5t131.5 348.5t319.5 137.5q113 0 206 -55
t139 -145zM576 175q133 0 226.5 101t93.5 240q0 140 -93 241t-227 101t-226.5 -98t-92.5 -244q0 -144 93.5 -242.5t225.5 -98.5z" />
    <glyph glyph-name="Hbar" unicode="&#x126;" horiz-adv-x="1514" 
d="M1433 1145v-91h-140v-1054h-179v625h-713v-625h-180v1054h-142v91h142v263h180v-263h713v263h179v-263h140zM1114 786v268h-713v-268h713z" />
    <glyph glyph-name="hbar" unicode="&#x127;" horiz-adv-x="1137" 
d="M646 1002q152 0 243 -91t91 -261v-650h-173v617q0 123 -60 181t-155 58q-105 0 -173.5 -67t-69.5 -201v-588h-173v1190h-134v115h134v231h173v-231h299v-115h-299v-337q47 71 123.5 110t173.5 39z" />
    <glyph glyph-name="Itilde" unicode="&#x128;" horiz-adv-x="621" 
d="M452 1548q-61 0 -99.5 26t-70.5 70q-17 24 -27.5 36.5t-31 24.5t-44.5 12q-51 0 -80 -42.5t-29 -111.5h-94q0 107 54.5 175t147.5 68q58 0 96 -25t70 -68q36 -47 56 -59q23 -16 52 -16q51 0 78.5 40.5t27.5 110.5h97q0 -106 -54.5 -173.5t-148.5 -67.5zM221 0v1408h179
v-1408h-179z" />
    <glyph glyph-name="itilde" unicode="&#x129;" horiz-adv-x="526" 
d="M393 1144q-103 0 -164 97q-34 51 -80 51q-41 0 -64.5 -37t-23.5 -97h-96q0 101 49 165t132 64q103 0 162 -98q30 -49 82 -49q41 0 64 35.5t23 96.5h97q0 -99 -49 -163.5t-132 -64.5zM176 0v983h174v-983h-174z" />
    <glyph glyph-name="Imacron" unicode="&#x12a;" horiz-adv-x="621" 
d="M-14 1554v110h647v-110h-647zM221 0v1408h179v-1408h-179z" />
    <glyph glyph-name="imacron" unicode="&#x12b;" horiz-adv-x="526" 
d="M-60 1178v111h647v-111h-647zM176 0v983h174v-983h-174z" />
    <glyph glyph-name="Iogonek" unicode="&#x12e;" horiz-adv-x="621" 
d="M233 -228q0 -43 75 -43q52 0 93 30v-127q-46 -18 -108 -18q-86 0 -130.5 24.5t-44.5 69.5q0 94 194 292h-91v1408h179v-1408h1q-5 -5 -24.5 -25t-31 -32t-31 -33.5t-31.5 -37.5t-25 -35t-19 -35.5t-6 -29.5z" />
    <glyph glyph-name="iogonek" unicode="&#x12f;" horiz-adv-x="526" 
d="M264 1214q-48 0 -82.5 34.5t-34.5 82.5t34.5 82t82.5 34q47 0 81.5 -34t34.5 -82t-34.5 -82.5t-81.5 -34.5zM176 0v983h174v-983q-5 -5 -24.5 -25t-31 -32t-31 -33.5t-31.5 -37.5t-25 -35t-19 -35.5t-6 -29.5q0 -43 75 -43q52 0 93 30v-127q-46 -18 -108 -18
q-86 0 -130.5 24.5t-44.5 69.5q0 94 194 292h-85z" />
    <glyph glyph-name="Idotaccent" unicode="&#x130;" horiz-adv-x="621" 
d="M310 1536q-48 0 -82.5 34.5t-34.5 82.5t34.5 82t82.5 34q47 0 81.5 -34t34.5 -82t-34.5 -82.5t-81.5 -34.5zM221 0v1408h179v-1408h-179z" />
    <glyph glyph-name="dotlessi" unicode="&#x131;" horiz-adv-x="526" 
d="M176 0v983h174v-983h-174z" />
    <glyph glyph-name="Kcommaaccent" unicode="&#x136;" horiz-adv-x="1314" 
d="M677 737l583 -737h-230l-506 651h-124v-651h-179v1408h179v-595h123l487 595h220zM397 -518l160 366h158l-226 -407z" />
    <glyph glyph-name="kcommaaccent" unicode="&#x137;" horiz-adv-x="1041" 
d="M574 534l449 -534h-221l-372 455h-79v-455h-175v1536h175v-949h74l341 396h205zM279 -518l160 366h158l-226 -407z" />
    <glyph glyph-name="Lacute" unicode="&#x139;" horiz-adv-x="946" 
d="M587 1813l-224 -259h-119l251 326zM400 163h489v-163h-668v1408h179v-1245z" />
    <glyph glyph-name="lacute" unicode="&#x13a;" horiz-adv-x="527" 
d="M198 1706l251 326l92 -67l-224 -259h-119zM176 0v1536h175v-1536h-175z" />
    <glyph glyph-name="Lcommaaccent" unicode="&#x13b;" horiz-adv-x="946" 
d="M400 163h489v-163h-668v1408h179v-1245zM314 -518l160 366h158l-226 -407z" />
    <glyph glyph-name="lcommaaccent" unicode="&#x13c;" horiz-adv-x="527" 
d="M176 0v1536h175v-1536h-175zM115 -559l-92 41l160 366h158z" />
    <glyph glyph-name="Lcaron" unicode="&#x13d;" horiz-adv-x="1032" 
d="M400 1408v-1245h489v-163h-668v1408h179zM931 1407l-177 -620h-126l122 620h181z" />
    <glyph glyph-name="lcaron" unicode="&#x13e;" horiz-adv-x="642" 
d="M176 0v1536h172v-1536h-172zM482 916l124 620h181l-178 -620h-127z" />
    <glyph glyph-name="Lslash" unicode="&#x141;" horiz-adv-x="946" 
d="M400 163h489v-163h-668v560l-164 -122v128l164 122v720h179v-586l198 148v-128l-198 -148v-531z" />
    <glyph glyph-name="lslash" unicode="&#x142;" horiz-adv-x="527" 
d="M532 985v-128l-181 -135v-722h-175v591l-185 -138v128l185 138v817h175v-686z" />
    <glyph glyph-name="Nacute" unicode="&#x143;" horiz-adv-x="1566" 
d="M1060 1813l-224 -259h-119l251 326zM1167 1408h178v-1408h-189l-759 1139v-1139h-176v1408h187l759 -1134v1134z" />
    <glyph glyph-name="nacute" unicode="&#x144;" horiz-adv-x="1138" 
d="M844 1412l-224 -259h-119l251 326zM640 1002q155 0 247.5 -89t92.5 -251v-662h-173v623q0 119 -60 176t-154 57q-107 0 -175 -67.5t-69 -200.5v-588h-173v983h173v-126q98 145 291 145z" />
    <glyph glyph-name="Ncommaaccent" unicode="&#x145;" horiz-adv-x="1566" 
d="M1167 1408h178v-1408h-189l-759 1139v-1139h-176v1408h187l759 -1134v1134zM543 -518l160 366h158l-226 -407z" />
    <glyph glyph-name="ncommaaccent" unicode="&#x146;" horiz-adv-x="1138" 
d="M640 1002q155 0 247.5 -89t92.5 -251v-662h-173v623q0 119 -60 176t-154 57q-107 0 -175 -67.5t-69 -200.5v-588h-173v983h173v-126q98 145 291 145zM327 -518l160 366h158l-226 -407z" />
    <glyph glyph-name="Ncaron" unicode="&#x147;" horiz-adv-x="1566" 
d="M846 1554h-127l-211 295h117l157 -214l156 214h119zM1167 1408h178v-1408h-189l-759 1139v-1139h-176v1408h187l759 -1134v1134z" />
    <glyph glyph-name="ncaron" unicode="&#x148;" horiz-adv-x="1138" 
d="M630 1165h-127l-211 295h117l157 -214l156 214h119zM640 1002q155 0 247.5 -89t92.5 -251v-662h-173v623q0 119 -60 176t-154 57q-107 0 -175 -67.5t-69 -200.5v-588h-173v983h173v-126q98 145 291 145z" />
    <glyph glyph-name="Eng" unicode="&#x14a;" horiz-adv-x="1599" 
d="M1202 1408h177v-1408q0 -220 -130 -340.5t-350 -120.5v142q142 0 225.5 82.5t67.5 236.5l-796 1145v-1145h-175v1408h184l797 -1139v1139z" />
    <glyph glyph-name="eng" unicode="&#x14b;" horiz-adv-x="1139" 
d="M642 1002q156 0 248 -90.5t92 -260.5v-826q0 -129 -74 -208.5t-198 -79.5h-133v129h92q61 0 100 40t39 110v807q0 120 -60.5 176.5t-160.5 56.5q-104 0 -170.5 -63t-67.5 -193v-600h-173v983h173v-116q49 65 124.5 100t168.5 35z" />
    <glyph glyph-name="Omacron" unicode="&#x14c;" horiz-adv-x="1646" 
d="M500 1554v110h647v-110h-647zM824 -19q-149 0 -277 50.5t-222.5 142t-148 228.5t-53.5 303q0 165 54 301.5t148 228.5t222 142t277 50q147 0 275 -50.5t222 -142t148 -228t54 -301.5t-54 -302.5t-148 -229t-222 -142t-275 -50.5zM824 150q225 0 372.5 148.5t147.5 406.5
q0 129 -40.5 234t-111 174t-165 106t-203.5 37q-110 0 -205 -37t-166 -106t-111.5 -174t-40.5 -234q0 -130 40.5 -236t111.5 -175t166 -106.5t205 -37.5z" />
    <glyph glyph-name="omacron" unicode="&#x14d;" horiz-adv-x="1180" 
d="M266 1177v111h647v-111h-647zM590 -19q-140 0 -252 61t-177.5 178.5t-65.5 271.5q0 231 139.5 370.5t355.5 139.5q217 0 356 -139.5t139 -370.5q0 -232 -139.5 -371.5t-355.5 -139.5zM589 125q140 0 232.5 101t92.5 266q0 164 -92.5 265t-232.5 101q-139 0 -230.5 -101
t-91.5 -265q0 -165 91.5 -266t230.5 -101z" />
    <glyph glyph-name="Ohungarumlaut" unicode="&#x150;" horiz-adv-x="1646" 
d="M584 1554l251 326l92 -67l-224 -259h-119zM943 1554l252 326l92 -67l-224 -259h-120zM824 -19q-149 0 -277 50.5t-222.5 142t-148 228.5t-53.5 303q0 165 54 301.5t148 228.5t222 142t277 50q147 0 275 -50.5t222 -142t148 -228t54 -301.5t-54 -302.5t-148 -229
t-222 -142t-275 -50.5zM824 150q225 0 372.5 148.5t147.5 406.5q0 129 -40.5 234t-111 174t-165 106t-203.5 37q-110 0 -205 -37t-166 -106t-111.5 -174t-40.5 -234q0 -130 40.5 -236t111.5 -175t166 -106.5t205 -37.5z" />
    <glyph glyph-name="ohungarumlaut" unicode="&#x151;" horiz-adv-x="1180" 
d="M350 1152l251 326l92 -67l-224 -259h-119zM709 1152l252 326l92 -67l-224 -259h-120zM590 -19q-140 0 -252 61t-177.5 178.5t-65.5 271.5q0 231 139.5 370.5t355.5 139.5q217 0 356 -139.5t139 -370.5q0 -232 -139.5 -371.5t-355.5 -139.5zM589 125q140 0 232.5 101
t92.5 266q0 164 -92.5 265t-232.5 101q-139 0 -230.5 -101t-91.5 -265q0 -165 91.5 -266t230.5 -101z" />
    <glyph glyph-name="OE" unicode="&#x152;" horiz-adv-x="1959" 
d="M835 0q-357 0 -534.5 186t-177.5 520q0 333 177.5 517.5t534.5 184.5h1002v-163h-610v-459h524v-163h-524v-460h610v-163h-1002zM842 163h207v1082h-207q-280 0 -407.5 -136t-127.5 -403q0 -268 127.5 -405.5t407.5 -137.5z" />
    <glyph glyph-name="oe" unicode="&#x153;" horiz-adv-x="1952" 
d="M1857 511l-2 -47h-768q4 -164 94 -251.5t224 -87.5q90 0 163 47t112 130l156 -33q-53 -134 -168 -211t-261 -77q-133 0 -238.5 53t-169.5 152q-65 -98 -171.5 -151.5t-237.5 -53.5q-140 0 -252 61t-177.5 178.5t-65.5 271.5q0 231 139.5 370.5t355.5 139.5
q131 0 237.5 -53.5t172.5 -151.5q64 99 168.5 152t233.5 53q206 0 330.5 -126t124.5 -365zM1402 869q-122 0 -204.5 -69.5t-103.5 -202.5h589q-10 133 -86 202.5t-195 69.5zM589 125q140 0 232.5 101t92.5 266q0 164 -92.5 265t-232.5 101q-139 0 -230.5 -101t-91.5 -265
q0 -165 91.5 -266t230.5 -101z" />
    <glyph glyph-name="Racute" unicode="&#x154;" horiz-adv-x="1275" 
d="M913 1813l-224 -259h-119l251 326zM983 0l-362 635h-221v-635h-179v1408h467q207 0 315.5 -111.5t108.5 -286.5q0 -147 -82.5 -245t-229.5 -123l392 -642h-209zM400 1251v-475h264q137 0 206 63.5t69 172.5t-69.5 174t-205.5 65h-264z" />
    <glyph glyph-name="racute" unicode="&#x155;" horiz-adv-x="683" 
d="M622 1412l-224 -259h-119l251 326zM345 810q37 81 122 132t189 52v-163q-150 0 -228.5 -73t-78.5 -233v-525h-173v983h169v-173z" />
    <glyph glyph-name="Rcommaaccent" unicode="&#x156;" horiz-adv-x="1275" 
d="M800 642l392 -642h-209l-362 635h-221v-635h-179v1408h467q207 0 315.5 -111.5t108.5 -286.5q0 -147 -82.5 -245t-229.5 -123zM400 1251v-475h264q137 0 206 63.5t69 172.5t-69.5 174t-205.5 65h-264zM396 -518l160 366h158l-226 -407z" />
    <glyph glyph-name="rcommaaccent" unicode="&#x157;" horiz-adv-x="683" 
d="M345 810q37 81 122 132t189 52v-163q-150 0 -228.5 -73t-78.5 -233v-525h-173v983h169v-173zM24 -518l160 366h158l-226 -407z" />
    <glyph glyph-name="Rcaron" unicode="&#x158;" horiz-adv-x="1275" 
d="M699 1554h-127l-211 295h117l157 -214l156 214h119zM983 0l-362 635h-221v-635h-179v1408h467q207 0 315.5 -111.5t108.5 -286.5q0 -147 -82.5 -245t-229.5 -123l392 -642h-209zM400 1251v-475h264q137 0 206 63.5t69 172.5t-69.5 174t-205.5 65h-264z" />
    <glyph glyph-name="rcaron" unicode="&#x159;" horiz-adv-x="683" 
d="M408 1165h-127l-211 295h117l157 -214l156 214h119zM345 810q37 81 122 132t189 52v-163q-150 0 -228.5 -73t-78.5 -233v-525h-173v983h169v-173z" />
    <glyph glyph-name="Sacute" unicode="&#x15a;" horiz-adv-x="1271" 
d="M570 1554l251 326l92 -67l-224 -259h-119zM656 -19q-220 0 -367.5 99.5t-183.5 273.5l181 43q25 -122 127 -192t249 -70q49 0 93 8t84.5 26.5t69.5 45.5t46 69t16 94q-1 36 -12.5 66.5t-28 52.5t-47.5 42.5t-57 34t-70.5 28.5t-74.5 23.5t-81 22.5q-10 3 -15 4
q-58 15 -94.5 26t-87.5 30.5t-83.5 38.5t-68.5 48t-56.5 62.5t-34 79.5t-13.5 100q0 126 65.5 216t169 132t232.5 42q197 0 338.5 -86.5t179.5 -255.5l-174 -44q-26 115 -117 173t-220 58q-57 0 -108 -13t-93.5 -40t-67.5 -73.5t-25 -107.5q0 -32 10 -59.5t25 -47.5t43 -39
t52.5 -31t65.5 -25.5t70 -22t77 -20.5q189 -50 271 -90q183 -90 209 -259q4 -29 4 -61q0 -103 -40.5 -182t-111 -126t-158 -70.5t-188.5 -23.5z" />
    <glyph glyph-name="sacute" unicode="&#x15b;" horiz-adv-x="945" 
d="M411 1153l251 326l92 -67l-224 -259h-119zM487 -19q-159 0 -265 71t-129 202l151 43q16 -88 80.5 -136.5t161.5 -48.5q52 0 94.5 13t72.5 48.5t29 89.5q-1 22 -8 40.5t-16 32.5t-28 27t-34 21t-44.5 18.5t-47.5 16t-55 16t-57 16.5q-62 19 -102 36t-83 47.5t-64.5 77.5
t-21.5 110q0 93 48 157t124.5 92.5t174.5 28.5q142 0 239.5 -64t119.5 -192l-142 -36q-16 83 -75 124.5t-141 41.5q-77 0 -132 -34.5t-55 -105.5q0 -30 14.5 -54.5t29.5 -38.5t54 -29.5t58 -21t72 -18.5q10 -3 15 -4q58 -15 94.5 -26.5t85 -36t76.5 -53.5t48 -76t20 -106
q0 -75 -29.5 -132.5t-80.5 -90.5t-114.5 -49.5t-137.5 -16.5z" />
    <glyph glyph-name="Scedilla" unicode="&#x15e;" horiz-adv-x="1271" 
d="M1154 383q0 -100 -39 -178t-106.5 -125.5t-152 -72t-182.5 -26.5l-58 -119q36 8 55 8q87 0 143.5 -53.5t56.5 -138.5q0 -88 -60.5 -149t-149.5 -61q-73 0 -139.5 37t-96.5 93l86 36q22 -32 65 -53.5t83 -21.5q49 0 84 34t35 85q0 54 -35 84t-90 30q-43 0 -80 -20l-75 49
l82 163q-190 17 -316 114.5t-159 255.5l181 43q25 -122 127 -192t249 -70q49 0 93 8t84.5 26.5t69.5 45.5t46 69t16 94q-1 36 -12.5 66.5t-28 52.5t-47.5 42.5t-57 34t-70.5 28.5t-74.5 23.5t-81 22.5q-10 3 -15 4q-58 15 -94.5 26t-87.5 30.5t-83.5 38.5t-68.5 48
t-56.5 62.5t-34 79.5t-13.5 100q0 126 65.5 216t169 132t232.5 42q197 0 338.5 -86.5t179.5 -255.5l-174 -44q-26 115 -117 173t-220 58q-57 0 -108 -13t-93.5 -40t-67.5 -73.5t-25 -107.5q0 -32 10 -59.5t25 -47.5t43 -39t52.5 -31t65.5 -25.5t70 -22t77 -20.5
q189 -50 271 -90q183 -90 209 -259q4 -29 4 -61z" />
    <glyph glyph-name="scedilla" unicode="&#x15f;" horiz-adv-x="945" 
d="M849 270q0 -72 -26.5 -127t-74 -89t-106 -51.5t-128.5 -20.5l-57 -119q36 8 55 8q87 0 143.5 -53.5t56.5 -138.5q0 -88 -60.5 -149t-149.5 -61q-73 0 -139.5 37t-96.5 93l86 36q22 -32 65 -53.5t83 -21.5q49 0 84 34t35 85q0 54 -35 84t-90 30q-43 0 -80 -20l-75 49
l82 162q-134 15 -220.5 84.5t-107.5 185.5l151 43q16 -88 80.5 -136.5t161.5 -48.5q52 0 94.5 13t72.5 48.5t29 89.5q-1 22 -8 40.5t-16 32.5t-28 27t-34 21t-44.5 18.5t-47.5 16t-55 16t-57 16.5q-62 19 -102 36t-83 47.5t-64.5 77.5t-21.5 110q0 93 48 157t124.5 92.5
t174.5 28.5q142 0 239.5 -64t119.5 -192l-142 -36q-16 83 -75 124.5t-141 41.5q-77 0 -132 -34.5t-55 -105.5q0 -30 14.5 -54.5t29.5 -38.5t54 -29.5t58 -21t72 -18.5q10 -3 15 -4q58 -15 94.5 -26.5t85 -36t76.5 -53.5t48 -76t20 -106z" />
    <glyph glyph-name="Scaron" unicode="&#x160;" horiz-adv-x="1271" 
d="M572 1554l-211 295h117l157 -214l156 214h119l-211 -295h-127zM656 -19q-220 0 -367.5 99.5t-183.5 273.5l181 43q25 -122 127 -192t249 -70q49 0 93 8t84.5 26.5t69.5 45.5t46 69t16 94q-1 36 -12.5 66.5t-28 52.5t-47.5 42.5t-57 34t-70.5 28.5t-74.5 23.5t-81 22.5
q-10 3 -15 4q-58 15 -94.5 26t-87.5 30.5t-83.5 38.5t-68.5 48t-56.5 62.5t-34 79.5t-13.5 100q0 126 65.5 216t169 132t232.5 42q197 0 338.5 -86.5t179.5 -255.5l-174 -44q-26 115 -117 173t-220 58q-57 0 -108 -13t-93.5 -40t-67.5 -73.5t-25 -107.5q0 -32 10 -59.5
t25 -47.5t43 -39t52.5 -31t65.5 -25.5t70 -22t77 -20.5q189 -50 271 -90q183 -90 209 -259q4 -29 4 -61q0 -103 -40.5 -182t-111 -126t-158 -70.5t-188.5 -23.5z" />
    <glyph glyph-name="scaron" unicode="&#x161;" horiz-adv-x="945" 
d="M413 1165l-211 295h117l157 -214l156 214h119l-211 -295h-127zM487 -19q-159 0 -265 71t-129 202l151 43q16 -88 80.5 -136.5t161.5 -48.5q52 0 94.5 13t72.5 48.5t29 89.5q-1 22 -8 40.5t-16 32.5t-28 27t-34 21t-44.5 18.5t-47.5 16t-55 16t-57 16.5q-62 19 -102 36
t-83 47.5t-64.5 77.5t-21.5 110q0 93 48 157t124.5 92.5t174.5 28.5q142 0 239.5 -64t119.5 -192l-142 -36q-16 83 -75 124.5t-141 41.5q-77 0 -132 -34.5t-55 -105.5q0 -30 14.5 -54.5t29.5 -38.5t54 -29.5t58 -21t72 -18.5q10 -3 15 -4q58 -15 94.5 -26.5t85 -36
t76.5 -53.5t48 -76t20 -106q0 -75 -29.5 -132.5t-80.5 -90.5t-114.5 -49.5t-137.5 -16.5z" />
    <glyph glyph-name="uni0162" unicode="&#x162;" horiz-adv-x="1013" 
d="M596 0h-42l-67 -138q36 8 55 8q87 0 143.5 -53.5t56.5 -138.5q0 -88 -60.5 -149t-149.5 -61q-73 0 -139.5 37t-96.5 93l86 36q22 -32 65 -53.5t83 -21.5q49 0 84 34t35 85q0 54 -35 84t-90 30q-43 0 -80 -20l-75 49l90 179h-41v1245h-362v163h901v-163h-361v-1245z" />
    <glyph glyph-name="uni0163" unicode="&#x163;" horiz-adv-x="702" 
d="M569 -130q87 0 143.5 -53.5t56.5 -138.5q0 -88 -60.5 -149t-149.5 -61q-73 0 -139.5 37t-96.5 93l86 36q22 -32 65 -53.5t83 -21.5q49 0 84 34t35 85q0 54 -35 84t-90 30q-43 0 -80 -20l-75 49l90 179q-120 2 -189 71.5t-69 195.5v578h-201v138h74q77 0 108.5 34.5
t31.5 115.5v178h161v-328h226v-138h-226v-560q0 -70 37.5 -108.5t98.5 -38.5h90v-138h-47l-67 -138q36 8 55 8z" />
    <glyph glyph-name="Tcaron" unicode="&#x164;" horiz-adv-x="1013" 
d="M570 1554h-127l-211 295h117l157 -214l156 214h119zM957 1408v-163h-361v-1245h-178v1245h-362v163h901z" />
    <glyph glyph-name="tcaron" unicode="&#x165;" horiz-adv-x="662" 
d="M542 1202l124 619h181l-178 -619h-127zM481 0q-122 0 -192 70.5t-70 196.5v578h-201v138h74q76 0 108 34.5t32 115.5v178h160v-328h226v-138h-226v-560q0 -70 38 -108.5t99 -38.5h89v-138h-137z" />
    <glyph glyph-name="Tbar" unicode="&#x166;" horiz-adv-x="1013" 
d="M957 1245h-361v-483h215v-115h-215v-647h-178v647h-213v115h213v483h-362v163h901v-163z" />
    <glyph glyph-name="tbar" unicode="&#x167;" horiz-adv-x="702" 
d="M628 845h-226v-296h166v-115h-166v-149q0 -70 37.5 -108.5t98.5 -38.5h90v-138h-138q-122 0 -192 70.5t-70 196.5v167h-152v115h152v296h-201v138h74q77 0 108.5 34.5t31.5 115.5v178h161v-328h226v-138z" />
    <glyph glyph-name="Utilde" unicode="&#x168;" horiz-adv-x="1409" 
d="M845 1548q-61 0 -99.5 26t-70.5 70q-17 24 -27.5 36.5t-31 24.5t-44.5 12q-51 0 -80 -42.5t-29 -111.5h-94q0 107 54.5 175t147.5 68q58 0 96 -25t70 -68q36 -47 56 -59q24 -16 52 -16q51 0 78.5 40.5t27.5 110.5h97q0 -106 -54.5 -173.5t-148.5 -67.5zM703 -19
q-224 0 -367.5 130t-143.5 356v941h179v-916q0 -170 92.5 -259t239.5 -89t241 89.5t94 258.5v916h179v-941q0 -226 -144.5 -356t-369.5 -130z" />
    <glyph glyph-name="utilde" unicode="&#x169;" horiz-adv-x="1137" 
d="M456 1292q-41 0 -64.5 -37t-23.5 -97h-96q0 101 49 165t132 64q103 0 162 -98q30 -49 82 -49q41 0 64 35.5t23 96.5h97q0 -99 -49 -163.5t-132 -64.5q-103 0 -164 97q-34 51 -80 51zM788 983h173v-983h-166l-4 130q-46 -72 -122 -110.5t-172 -38.5q-155 0 -247.5 89
t-92.5 251v662h173v-623q0 -118 60.5 -176t154.5 -58q107 0 174.5 68t68.5 201v588z" />
    <glyph glyph-name="Umacron" unicode="&#x16a;" horiz-adv-x="1409" 
d="M379 1554v110h647v-110h-647zM703 -19q-224 0 -367.5 130t-143.5 356v941h179v-916q0 -170 92.5 -259t239.5 -89t241 89.5t94 258.5v916h179v-941q0 -226 -144.5 -356t-369.5 -130z" />
    <glyph glyph-name="umacron" unicode="&#x16b;" horiz-adv-x="1137" 
d="M894 1289v-111h-647v111h647zM788 983h173v-983h-166l-4 130q-46 -72 -122 -110.5t-172 -38.5q-155 0 -247.5 89t-92.5 251v662h173v-623q0 -118 60.5 -176t154.5 -58q107 0 174.5 68t68.5 201v588z" />
    <glyph glyph-name="Uring" unicode="&#x16e;" horiz-adv-x="1409" 
d="M703 1554q-87 0 -149 62t-62 148q0 87 61.5 148t149.5 61q86 0 147 -61t61 -148q0 -86 -61.5 -148t-146.5 -62zM703 1639q53 0 89 35.5t36 89.5q0 53 -36.5 90.5t-88.5 37.5t-88.5 -37.5t-36.5 -90.5q0 -54 36 -89.5t89 -35.5zM703 -19q-224 0 -367.5 130t-143.5 356v941
h179v-916q0 -170 92.5 -259t239.5 -89t241 89.5t94 258.5v916h179v-941q0 -226 -144.5 -356t-369.5 -130z" />
    <glyph glyph-name="uring" unicode="&#x16f;" horiz-adv-x="1137" 
d="M571 1116q-87 0 -149 62.5t-62 148.5q0 87 61.5 148t149.5 61q86 0 147 -61t61 -148q0 -86 -61.5 -148.5t-146.5 -62.5zM571 1455q-52 0 -88.5 -38t-36.5 -90q0 -54 36 -89.5t89 -35.5t89 35.5t36 89.5q0 52 -36.5 90t-88.5 38zM788 983h173v-983h-166l-4 130
q-46 -72 -122 -110.5t-172 -38.5q-155 0 -247.5 89t-92.5 251v662h173v-623q0 -118 60.5 -176t154.5 -58q107 0 174.5 68t68.5 201v588z" />
    <glyph glyph-name="Uhungarumlaut" unicode="&#x170;" horiz-adv-x="1409" 
d="M463 1554l251 326l92 -67l-224 -259h-119zM822 1554l252 326l92 -67l-224 -259h-120zM703 -19q-224 0 -367.5 130t-143.5 356v941h179v-916q0 -170 92.5 -259t239.5 -89t241 89.5t94 258.5v916h179v-941q0 -226 -144.5 -356t-369.5 -130z" />
    <glyph glyph-name="uhungarumlaut" unicode="&#x171;" horiz-adv-x="1137" 
d="M674 1412l-224 -259h-119l251 326zM1034 1412l-224 -259h-120l252 326zM788 395v588h173v-983h-166l-4 130q-46 -72 -122 -110.5t-172 -38.5q-155 0 -247.5 89t-92.5 251v662h173v-623q0 -118 60.5 -176t154.5 -58q107 0 174.5 68t68.5 201z" />
    <glyph glyph-name="Uogonek" unicode="&#x172;" horiz-adv-x="1409" 
d="M1038 1408h179v-941q0 -166 -80.5 -282t-218.5 -167q-41 -42 -66 -69.5t-54 -70.5t-29 -69q0 -43 75 -43q52 0 93 30v-127q-46 -18 -108 -18q-86 0 -130.5 24.5t-44.5 69.5q0 82 148 243q-45 -7 -99 -7q-224 0 -367.5 130t-143.5 356v941h179v-916q0 -170 92.5 -259
t239.5 -89t241 89.5t94 258.5v916z" />
    <glyph glyph-name="uogonek" unicode="&#x173;" horiz-adv-x="1137" 
d="M961 983v-983q-5 -5 -24.5 -25t-31 -32t-31 -33.5t-31.5 -37.5t-25 -35t-19 -35.5t-6 -29.5q0 -43 75 -43q52 0 93 30v-127q-47 -18 -108 -18q-86 0 -130.5 24.5t-44.5 69.5q0 94 194 292h-77l-4 130q-46 -72 -122 -110.5t-172 -38.5q-155 0 -247.5 89t-92.5 251v662h173
v-623q0 -118 60.5 -176t154.5 -58q107 0 174.5 68t68.5 201v588h173z" />
    <glyph glyph-name="Wcircumflex" unicode="&#x174;" horiz-adv-x="2042" 
d="M863 1554h-118l211 295h128l211 -295h-119l-157 212zM473 0l-402 1408h186l334 -1161l351 1161h158l351 -1161l336 1161h185l-403 -1408h-210l-338 1083l-338 -1083h-210z" />
    <glyph glyph-name="wcircumflex" unicode="&#x175;" horiz-adv-x="1597" 
d="M803 1377l-156 -212h-118l211 295h128l211 -295h-119zM1377 983h182l-339 -984h-157l-266 758l-267 -758h-158l-333 984h180l243 -753l267 753h133l267 -755z" />
    <glyph glyph-name="Ycircumflex" unicode="&#x176;" horiz-adv-x="1197" 
d="M597 1766l-156 -212h-118l211 295h128l211 -295h-119zM1152 1408l-463 -737v-671h-180v670l-464 738h204l350 -576l350 576h203z" />
    <glyph glyph-name="ycircumflex" unicode="&#x177;" horiz-adv-x="997" 
d="M498 1377l-156 -212h-118l211 295h128l211 -295h-119zM782 983h183l-569 -1446h-179l197 487l-382 959h192l277 -765z" />
    <glyph glyph-name="Ydieresis" unicode="&#x178;" horiz-adv-x="1197" 
d="M412 1536q-48 0 -82.5 34.5t-34.5 82.5t34.5 82t82.5 34q47 0 81.5 -34t34.5 -82t-34.5 -82.5t-81.5 -34.5zM786 1536q-48 0 -82.5 34.5t-34.5 82.5t34.5 82t82.5 34q47 0 81.5 -34t34.5 -82t-34.5 -82.5t-81.5 -34.5zM1152 1408l-463 -737v-671h-180v670l-464 738h204
l350 -576l350 576h203z" />
    <glyph glyph-name="Zacute" unicode="&#x179;" horiz-adv-x="1231" 
d="M906 1813l-224 -259h-119l251 326zM320 163h820v-163h-1042v146l800 1099h-797v163h1013v-148z" />
    <glyph glyph-name="zacute" unicode="&#x17a;" horiz-adv-x="900" 
d="M738 1412l-224 -259h-119l251 326zM312 140h524v-140h-784l518 842h-488v141h753z" />
    <glyph glyph-name="Zdotaccent" unicode="&#x17b;" horiz-adv-x="1231" 
d="M629 1536q-48 0 -82.5 34.5t-34.5 82.5t34.5 82t82.5 34q47 0 81.5 -34t34.5 -82t-34.5 -82.5t-81.5 -34.5zM320 163h820v-163h-1042v146l800 1099h-797v163h1013v-148z" />
    <glyph glyph-name="zdotaccent" unicode="&#x17c;" horiz-adv-x="900" 
d="M461 1214q-48 0 -82.5 34.5t-34.5 82.5t34.5 82t82.5 34q47 0 81.5 -34t34.5 -82t-34.5 -82.5t-81.5 -34.5zM312 140h524v-140h-784l518 842h-488v141h753z" />
    <glyph glyph-name="Zcaron" unicode="&#x17d;" horiz-adv-x="1231" 
d="M692 1554h-127l-211 295h117l157 -214l156 214h119zM320 163h820v-163h-1042v146l800 1099h-797v163h1013v-148z" />
    <glyph glyph-name="zcaron" unicode="&#x17e;" horiz-adv-x="900" 
d="M524 1165h-127l-211 295h117l157 -214l156 214h119zM312 140h524v-140h-784l518 842h-488v141h753z" />
    <glyph glyph-name="florin" unicode="&#x192;" horiz-adv-x="1037" 
d="M171 -384l194 1223h-172l22 144h174l42 274q19 126 121.5 212.5t228.5 86.5q40 0 78.5 -10.5t57.5 -25.5l-15 -135q-43 35 -104 35q-77 0 -134 -52t-70 -134l-39 -251h287l-23 -144h-286l-197 -1223h-165z" />
    <glyph glyph-name="Ohorn" unicode="&#x1a0;" horiz-adv-x="1646" 
d="M1488 1478h109v-108q0 -123 -46 -178.5t-123 -55.5q-9 0 -27 2q122 -182 122 -433q0 -165 -54 -302.5t-148 -229t-222 -142t-275 -50.5q-149 0 -277 50.5t-222.5 142t-148 228.5t-53.5 303q0 165 54 301.5t148 228.5t222 142t277 50q144 0 269 -47.5t219 -136.5
q44 -19 83 -19q50 0 71.5 37t21.5 115v102zM824 150q225 0 372.5 148.5t147.5 406.5q0 129 -40.5 234t-111 174t-165 106t-203.5 37q-110 0 -205 -37t-166 -106t-111.5 -174t-40.5 -234q0 -130 40.5 -236t111.5 -175t166 -106.5t205 -37.5z" />
    <glyph glyph-name="ohorn" unicode="&#x1a1;" horiz-adv-x="1180" 
d="M1089 1118h109v-108q0 -123 -46 -178.5t-123 -55.5q-11 0 -17 1q73 -121 73 -285q0 -232 -139.5 -371.5t-355.5 -139.5q-140 0 -252 61t-177.5 178.5t-65.5 271.5q0 231 139.5 370.5t355.5 139.5q207 0 342 -126q36 -12 64 -12q50 0 71.5 37t21.5 115v102zM589 125
q140 0 232.5 101t92.5 266q0 164 -92.5 265t-232.5 101q-139 0 -230.5 -101t-91.5 -265q0 -165 91.5 -266t230.5 -101z" />
    <glyph glyph-name="Uhorn" unicode="&#x1af;" horiz-adv-x="1409" 
d="M1379 1529h109v-108q0 -123 -46 -178.5t-123 -55.5q-47 0 -102 19v-739q0 -226 -144.5 -356t-369.5 -130q-224 0 -367.5 130t-143.5 356v941h179v-916q0 -170 92.5 -259t239.5 -89t241 89.5t94 258.5v916h179v-119q35 -14 69 -14q50 0 71.5 37t21.5 115v102z" />
    <glyph glyph-name="uhorn" unicode="&#x1b0;" horiz-adv-x="1137" 
d="M1133 1104h109v-108q0 -123 -46 -178.5t-123 -55.5q-52 0 -112 23v-785h-166l-4 130q-46 -72 -122 -110.5t-172 -38.5q-155 0 -247.5 89t-92.5 251v662h173v-623q0 -118 60.5 -176t154.5 -58q107 0 174.5 68t68.5 201v588h173v-116q45 -17 79 -17q50 0 71.5 37t21.5 115
v102z" />
    <glyph glyph-name="uni01CD" unicode="&#x1cd;" horiz-adv-x="1372" 
d="M748 1554h-127l-211 295h117l157 -214l156 214h119zM1125 0l-121 337h-637l-120 -337h-187l519 1408h214l519 -1408h-187zM424 495h524l-262 733z" />
    <glyph glyph-name="uni01CE" unicode="&#x1ce;" horiz-adv-x="1073" 
d="M476 1165l-211 295h117l157 -214l156 214h119l-211 -295h-127zM403 -19q-131 0 -215.5 67.5t-84.5 201.5q0 74 27 128.5t80 89.5t115.5 55.5t149.5 35.5l159 26q87 16 87 91q0 100 -61.5 146.5t-155.5 46.5q-92 0 -154 -45t-73 -138l-156 33q22 140 123 210.5t268 70.5
q78 0 142.5 -17.5t119 -55t85 -106t30.5 -161.5v-406q0 -76 22.5 -102.5t77.5 -26.5h16v-125h-86q-159 0 -186 133h-8q-112 -152 -322 -152zM443 121q131 0 211 95t80 260l-260 -50q-103 -17 -152.5 -54.5t-49.5 -107.5q0 -73 47.5 -108t123.5 -35z" />
    <glyph glyph-name="uni01CF" unicode="&#x1cf;" horiz-adv-x="621" 
d="M246 1554l-211 295h117l157 -214l156 214h119l-211 -295h-127zM221 0v1408h179v-1408h-179z" />
    <glyph glyph-name="uni01D0" unicode="&#x1d0;" horiz-adv-x="526" 
d="M200 1165l-211 295h117l157 -214l156 214h119l-211 -295h-127zM176 0v983h174v-983h-174z" />
    <glyph glyph-name="uni01D1" unicode="&#x1d1;" horiz-adv-x="1646" 
d="M760 1554l-211 295h117l157 -214l156 214h119l-211 -295h-127zM824 -19q-149 0 -277 50.5t-222.5 142t-148 228.5t-53.5 303q0 165 54 301.5t148 228.5t222 142t277 50q147 0 275 -50.5t222 -142t148 -228t54 -301.5t-54 -302.5t-148 -229t-222 -142t-275 -50.5zM824 150
q225 0 372.5 148.5t147.5 406.5q0 129 -40.5 234t-111 174t-165 106t-203.5 37q-110 0 -205 -37t-166 -106t-111.5 -174t-40.5 -234q0 -130 40.5 -236t111.5 -175t166 -106.5t205 -37.5z" />
    <glyph glyph-name="uni01D2" unicode="&#x1d2;" horiz-adv-x="1180" 
d="M526 1164l-211 295h117l157 -214l156 214h119l-211 -295h-127zM590 -19q-140 0 -252 61t-177.5 178.5t-65.5 271.5q0 231 139.5 370.5t355.5 139.5q217 0 356 -139.5t139 -370.5q0 -232 -139.5 -371.5t-355.5 -139.5zM589 125q140 0 232.5 101t92.5 266q0 164 -92.5 265
t-232.5 101q-139 0 -230.5 -101t-91.5 -265q0 -165 91.5 -266t230.5 -101z" />
    <glyph glyph-name="uni01D3" unicode="&#x1d3;" horiz-adv-x="1409" 
d="M639 1554l-211 295h117l157 -214l156 214h119l-211 -295h-127zM703 -19q-224 0 -367.5 130t-143.5 356v941h179v-916q0 -170 92.5 -259t239.5 -89t241 89.5t94 258.5v916h179v-941q0 -226 -144.5 -356t-369.5 -130z" />
    <glyph glyph-name="uni01D4" unicode="&#x1d4;" horiz-adv-x="1137" 
d="M634 1165h-127l-211 295h117l157 -214l156 214h119zM788 983h173v-983h-166l-4 130q-46 -72 -122 -110.5t-172 -38.5q-155 0 -247.5 89t-92.5 251v662h173v-623q0 -118 60.5 -176t154.5 -58q107 0 174.5 68t68.5 201v588z" />
    <glyph glyph-name="uni01D5" unicode="&#x1d5;" horiz-adv-x="1409" 
d="M379 1915v110h647v-110h-647zM516 1536q-48 0 -82.5 34.5t-34.5 82.5t34.5 82t82.5 34q47 0 81.5 -34t34.5 -82t-34.5 -82.5t-81.5 -34.5zM890 1536q-48 0 -82.5 34.5t-34.5 82.5t34.5 82t82.5 34q47 0 81.5 -34t34.5 -82t-34.5 -82.5t-81.5 -34.5zM703 -19
q-224 0 -367.5 130t-143.5 356v941h179v-916q0 -170 92.5 -259t239.5 -89t241 89.5t94 258.5v916h179v-941q0 -226 -144.5 -356t-369.5 -130z" />
    <glyph glyph-name="uni01D6" unicode="&#x1d6;" horiz-adv-x="1137" 
d="M894 1732v-111h-647v111h647zM267 1331q0 48 34.5 82t82.5 34q47 0 81.5 -34t34.5 -82t-34.5 -82.5t-81.5 -34.5q-48 0 -82.5 34.5t-34.5 82.5zM641 1331q0 48 34.5 82t82.5 34q47 0 81.5 -34t34.5 -82t-34.5 -82.5t-81.5 -34.5q-48 0 -82.5 34.5t-34.5 82.5zM788 983
h173v-983h-166l-4 130q-46 -72 -122 -110.5t-172 -38.5q-155 0 -247.5 89t-92.5 251v662h173v-623q0 -118 60.5 -176t154.5 -58q107 0 174.5 68t68.5 201v588z" />
    <glyph glyph-name="uni01D7" unicode="&#x1d7;" horiz-adv-x="1409" 
d="M637 1915l251 326l92 -67l-224 -259h-119zM516 1536q-48 0 -82.5 34.5t-34.5 82.5t34.5 82t82.5 34q47 0 81.5 -34t34.5 -82t-34.5 -82.5t-81.5 -34.5zM890 1536q-48 0 -82.5 34.5t-34.5 82.5t34.5 82t82.5 34q47 0 81.5 -34t34.5 -82t-34.5 -82.5t-81.5 -34.5zM703 -19
q-224 0 -367.5 130t-143.5 356v941h179v-916q0 -170 92.5 -259t239.5 -89t241 89.5t94 258.5v916h179v-941q0 -226 -144.5 -356t-369.5 -130z" />
    <glyph glyph-name="uni01D8" unicode="&#x1d8;" horiz-adv-x="1137" 
d="M848 1855l-224 -259h-119l251 326zM384 1214q-48 0 -82.5 34.5t-34.5 82.5t34.5 82t82.5 34q47 0 81.5 -34t34.5 -82t-34.5 -82.5t-81.5 -34.5zM758 1447q47 0 81.5 -34t34.5 -82t-34.5 -82.5t-81.5 -34.5q-48 0 -82.5 34.5t-34.5 82.5t34.5 82t82.5 34zM788 983h173
v-983h-166l-4 130q-46 -72 -122 -110.5t-172 -38.5q-155 0 -247.5 89t-92.5 251v662h173v-623q0 -118 60.5 -176t154.5 -58q107 0 174.5 68t68.5 201v588z" />
    <glyph glyph-name="uni01D9" unicode="&#x1d9;" horiz-adv-x="1409" 
d="M639 1915l-211 295h117l157 -214l156 214h119l-211 -295h-127zM516 1536q-48 0 -82.5 34.5t-34.5 82.5t34.5 82t82.5 34q47 0 81.5 -34t34.5 -82t-34.5 -82.5t-81.5 -34.5zM890 1536q-48 0 -82.5 34.5t-34.5 82.5t34.5 82t82.5 34q47 0 81.5 -34t34.5 -82t-34.5 -82.5
t-81.5 -34.5zM703 -19q-224 0 -367.5 130t-143.5 356v941h179v-916q0 -170 92.5 -259t239.5 -89t241 89.5t94 258.5v916h179v-941q0 -226 -144.5 -356t-369.5 -130z" />
    <glyph glyph-name="uni01DA" unicode="&#x1da;" horiz-adv-x="1137" 
d="M634 1608h-127l-211 295h117l157 -214l156 214h119zM384 1214q-48 0 -82.5 34.5t-34.5 82.5t34.5 82t82.5 34q47 0 81.5 -34t34.5 -82t-34.5 -82.5t-81.5 -34.5zM758 1447q47 0 81.5 -34t34.5 -82t-34.5 -82.5t-81.5 -34.5q-48 0 -82.5 34.5t-34.5 82.5t34.5 82t82.5 34z
M788 983h173v-983h-166l-4 130q-46 -72 -122 -110.5t-172 -38.5q-155 0 -247.5 89t-92.5 251v662h173v-623q0 -118 60.5 -176t154.5 -58q107 0 174.5 68t68.5 201v588z" />
    <glyph glyph-name="uni01DB" unicode="&#x1db;" horiz-adv-x="1409" 
d="M645 1915l-225 259l92 67l252 -326h-119zM516 1536q-48 0 -82.5 34.5t-34.5 82.5t34.5 82t82.5 34q47 0 81.5 -34t34.5 -82t-34.5 -82.5t-81.5 -34.5zM890 1536q-48 0 -82.5 34.5t-34.5 82.5t34.5 82t82.5 34q47 0 81.5 -34t34.5 -82t-34.5 -82.5t-81.5 -34.5zM703 -19
q-224 0 -367.5 130t-143.5 356v941h179v-916q0 -170 92.5 -259t239.5 -89t241 89.5t94 258.5v916h179v-941q0 -226 -144.5 -356t-369.5 -130z" />
    <glyph glyph-name="uni01DC" unicode="&#x1dc;" horiz-adv-x="1137" 
d="M632 1596h-119l-225 259l92 67zM384 1214q-48 0 -82.5 34.5t-34.5 82.5t34.5 82t82.5 34q47 0 81.5 -34t34.5 -82t-34.5 -82.5t-81.5 -34.5zM758 1214q-48 0 -82.5 34.5t-34.5 82.5t34.5 82t82.5 34q47 0 81.5 -34t34.5 -82t-34.5 -82.5t-81.5 -34.5zM788 983h173v-983
h-166l-4 130q-46 -72 -122 -110.5t-172 -38.5q-155 0 -247.5 89t-92.5 251v662h173v-623q0 -118 60.5 -176t154.5 -58q107 0 174.5 68t68.5 201v588z" />
    <glyph glyph-name="Scommaaccent" unicode="&#x218;" horiz-adv-x="1271" 
d="M656 -19q-220 0 -367.5 99.5t-183.5 273.5l181 43q25 -122 127 -192t249 -70q49 0 93 8t84.5 26.5t69.5 45.5t46 69t16 94q-1 36 -12.5 66.5t-28 52.5t-47.5 42.5t-57 34t-70.5 28.5t-74.5 23.5t-81 22.5q-10 3 -15 4q-58 15 -94.5 26t-87.5 30.5t-83.5 38.5t-68.5 48
t-56.5 62.5t-34 79.5t-13.5 100q0 126 65.5 216t169 132t232.5 42q197 0 338.5 -86.5t179.5 -255.5l-174 -44q-26 115 -117 173t-220 58q-57 0 -108 -13t-93.5 -40t-67.5 -73.5t-25 -107.5q0 -32 10 -59.5t25 -47.5t43 -39t52.5 -31t65.5 -25.5t70 -22t77 -20.5
q189 -50 271 -90q183 -90 209 -259q4 -29 4 -61q0 -103 -40.5 -182t-111 -126t-158 -70.5t-188.5 -23.5zM488 -559l-92 41l160 366h158z" />
    <glyph glyph-name="scommaaccent" unicode="&#x219;" horiz-adv-x="945" 
d="M487 -19q-159 0 -265 71t-129 202l151 43q16 -88 80.5 -136.5t161.5 -48.5q52 0 94.5 13t72.5 48.5t29 89.5q-1 22 -8 40.5t-16 32.5t-28 27t-34 21t-44.5 18.5t-47.5 16t-55 16t-57 16.5q-62 19 -102 36t-83 47.5t-64.5 77.5t-21.5 110q0 93 48 157t124.5 92.5
t174.5 28.5q142 0 239.5 -64t119.5 -192l-142 -36q-16 83 -75 124.5t-141 41.5q-77 0 -132 -34.5t-55 -105.5q0 -30 14.5 -54.5t29.5 -38.5t54 -29.5t58 -21t72 -18.5q10 -3 15 -4q58 -15 94.5 -26.5t85 -36t76.5 -53.5t48 -76t20 -106q0 -75 -29.5 -132.5t-80.5 -90.5
t-114.5 -49.5t-137.5 -16.5zM329 -558l-92 41l160 366h158z" />
    <glyph glyph-name="uni021A" unicode="&#x21a;" horiz-adv-x="1013" 
d="M957 1408v-163h-361v-1245h-178v1245h-362v163h901zM267 -518l160 366h158l-226 -407z" />
    <glyph glyph-name="uni021B" unicode="&#x21b;" horiz-adv-x="702" 
d="M490 0q-122 0 -192 70.5t-70 196.5v578h-201v138h74q77 0 108.5 34.5t31.5 115.5v178h161v-328h226v-138h-226v-560q0 -70 37.5 -108.5t98.5 -38.5h90v-138h-138zM386 -559l-92 41l160 366h158z" />
    <glyph glyph-name="uni0237" unicode="&#x237;" horiz-adv-x="528" 
d="M-50 -460v147q94 0 141 28t66 96t19 203v969h175v-969q0 -260 -91 -367t-310 -107z" />
    <glyph glyph-name="circumflex" unicode="&#x2c6;" horiz-adv-x="696" 
d="M191 1241h-118l211 295h128l211 -295h-119l-157 212z" />
    <glyph glyph-name="caron" unicode="&#x2c7;" horiz-adv-x="703" 
d="M288 1241l-211 295h117l157 -214l156 214h119l-211 -295h-127z" />
    <glyph glyph-name="breve" unicode="&#x2d8;" horiz-adv-x="902" 
d="M449 1219q-149 0 -243.5 86t-94.5 231h113q0 -99 62.5 -162.5t162.5 -63.5q101 0 164.5 63t63.5 163h113q0 -145 -95 -231t-246 -86z" />
    <glyph glyph-name="dotaccent" unicode="&#x2d9;" horiz-adv-x="520" 
d="M260 1214q-48 0 -82.5 34.5t-34.5 82.5t34.5 82t82.5 34q47 0 81.5 -34t34.5 -82t-34.5 -82.5t-81.5 -34.5z" />
    <glyph glyph-name="ring" unicode="&#x2da;" horiz-adv-x="671" 
d="M336 1157q-87 0 -149 62.5t-62 148.5q0 87 61.5 148t149.5 61q86 0 147 -61t61 -148q0 -86 -61.5 -148.5t-146.5 -62.5zM336 1243q53 0 89 35.5t36 89.5q0 52 -36.5 90t-88.5 38t-88.5 -38t-36.5 -90q0 -54 36 -89.5t89 -35.5z" />
    <glyph glyph-name="ogonek" unicode="&#x2db;" horiz-adv-x="521" 
d="M273 -386q-86 0 -130.5 24.5t-44.5 69.5q0 98 221 319l62 -27q-5 -5 -24.5 -25t-31 -32t-31 -33.5t-31.5 -37.5t-25 -35t-19 -35.5t-6 -29.5q0 -43 75 -43q52 0 93 30v-127q-46 -18 -108 -18z" />
    <glyph glyph-name="tilde" unicode="&#x2dc;" horiz-adv-x="883" 
d="M565 1144q-103 0 -164 97q-34 51 -80 51q-41 0 -64.5 -37t-23.5 -97h-96q0 101 49 165t132 64q103 0 162 -98q30 -49 82 -49q41 0 64 35.5t23 96.5h97q0 -99 -49 -163.5t-132 -64.5z" />
    <glyph glyph-name="hungarumlaut" unicode="&#x2dd;" horiz-adv-x="842" 
d="M61 1229l251 326l92 -67l-224 -259h-119zM420 1229l252 326l92 -67l-224 -259h-120z" />
    <glyph glyph-name="gravecomb" unicode="&#x300;" 
d="M-179 1229l-225 259l92 67l252 -326h-119z" />
    <glyph glyph-name="acutecomb" unicode="&#x301;" 
d="M-421 1229l251 326l92 -67l-224 -259h-119z" />
    <glyph glyph-name="uni0302" unicode="&#x302;" 
d="M-505 1241h-118l211 295h128l211 -295h-119l-157 212z" />
    <glyph glyph-name="tildecomb" unicode="&#x303;" 
d="M-318 1144q-103 0 -164 97q-34 51 -80 51q-41 0 -64.5 -37t-23.5 -97h-96q0 101 49 165t132 64q103 0 162 -98q30 -49 82 -49q41 0 64 35.5t23 96.5h97q0 -99 -49 -163.5t-132 -64.5z" />
    <glyph glyph-name="uni0304" unicode="&#x304;" 
d="M-819 1254v111h647v-111h-647z" />
    <glyph glyph-name="uni0306" unicode="&#x306;" 
d="M-453 1219q-149 0 -243.5 86t-94.5 231h113q0 -99 62.5 -162.5t162.5 -63.5q101 0 164.5 63t63.5 163h113q0 -145 -95 -231t-246 -86z" />
    <glyph glyph-name="uni0307" unicode="&#x307;" 
d="M-260 1214q-48 0 -82.5 34.5t-34.5 82.5t34.5 82t82.5 34q47 0 81.5 -34t34.5 -82t-34.5 -82.5t-81.5 -34.5z" />
    <glyph glyph-name="uni0308" unicode="&#x308;" 
d="M-634 1214q-48 0 -82.5 34.5t-34.5 82.5t34.5 82t82.5 34q47 0 81.5 -34t34.5 -82t-34.5 -82.5t-81.5 -34.5zM-260 1214q-48 0 -82.5 34.5t-34.5 82.5t34.5 82t82.5 34q47 0 81.5 -34t34.5 -82t-34.5 -82.5t-81.5 -34.5z" />
    <glyph glyph-name="hookabovecomb" unicode="&#x309;" 
d="M-339 1155v119q119 26 119 110q0 37 -23 61.5t-64 24.5q-45 0 -86 -32l-51 70q59 48 138 48q82 0 133.5 -47t51.5 -121q0 -117 -130 -156v-77h-88z" />
    <glyph glyph-name="uni030A" unicode="&#x30a;" 
d="M-335 1157q-87 0 -149 62.5t-62 148.5q0 87 61.5 148t149.5 61q86 0 147 -61t61 -148q0 -86 -61.5 -148.5t-146.5 -62.5zM-335 1243q53 0 89 35.5t36 89.5q0 52 -36.5 90t-88.5 38t-88.5 -38t-36.5 -90q0 -54 36 -89.5t89 -35.5z" />
    <glyph glyph-name="uni030B" unicode="&#x30b;" 
d="M-781 1229l251 326l92 -67l-224 -259h-119zM-422 1229l252 326l92 -67l-224 -259h-120z" />
    <glyph glyph-name="uni030C" unicode="&#x30c;" 
d="M-415 1241l-211 295h117l157 -214l156 214h119l-211 -295h-127z" />
    <glyph glyph-name="uni0312" unicode="&#x312;" 
d="M-242 1529h126l-122 -306h-181z" />
    <glyph glyph-name="uni031B" unicode="&#x31b;" 
d="M-321 791q-88 0 -179 56l44 60q55 -28 102 -28q50 0 71.5 37t21.5 115v102h109v-108q0 -123 -46 -178.5t-123 -55.5z" />
    <glyph glyph-name="dotbelowcomb" unicode="&#x323;" 
d="M-260 -512q-48 0 -82.5 34t-34.5 83q0 47 34.5 81.5t82.5 34.5q47 0 81.5 -34.5t34.5 -81.5q0 -49 -34 -83t-82 -34z" />
    <glyph glyph-name="uni0326" unicode="&#x326;" 
d="M-299 -559l-92 41l160 366h158z" />
    <glyph glyph-name="uni0327" unicode="&#x327;" 
d="M-303 -532q-73 0 -139.5 37t-96.5 93l86 36q22 -32 65 -53.5t83 -21.5q49 0 84 34t35 85q0 54 -35 84t-90 30q-43 0 -80 -20l-75 49l110 219h94l-86 -178q36 8 55 8q87 0 143.5 -53.5t56.5 -138.5q0 -88 -60.5 -149t-149.5 -61z" />
    <glyph glyph-name="uni0328" unicode="&#x328;" 
d="M-248 -386q-86 0 -130.5 24.5t-44.5 69.5q0 98 221 319l62 -27q-5 -5 -24.5 -25t-31 -32t-31 -33.5t-31.5 -37.5t-25 -35t-19 -35.5t-6 -29.5q0 -43 75 -43q52 0 93 30v-127q-46 -18 -108 -18z" />
    <glyph glyph-name="uni0335" unicode="&#x335;" 
d="M-779 473v115h606v-115h-606z" />
    <glyph glyph-name="uni0336" unicode="&#x336;" 
d="M-1638 487v91h1466v-91h-1466z" />
    <glyph glyph-name="uni0337" unicode="&#x337;" 
d="M-603 275v128l541 404v-128z" />
    <glyph glyph-name="uni0338" unicode="&#x338;" 
d="M-904 212l812 1163l85 -52l-812 -1163z" />
    <glyph glyph-name="uni0394" unicode="&#x394;" horiz-adv-x="1535" 
d="M862 1536l617 -1536h-1423l617 1536h189zM303 161h927l-462 1184z" />
    <glyph glyph-name="uni03A9" unicode="&#x3a9;" horiz-adv-x="1832" 
d="M1322 150h387v-150h-622v123q76 40 143 101t121.5 144t86.5 193t32 233q0 116 -36.5 223t-103.5 192t-172.5 136t-233.5 51q-244 0 -402.5 -170t-158.5 -435q0 -120 32.5 -230t87 -193.5t121.5 -145.5t142 -99v-123h-623v150h381v2q-63 45 -120.5 110t-106.5 148.5
t-78 189.5t-29 217q0 204 95.5 371t268 263.5t388.5 96.5q138 0 258.5 -42t207.5 -113t149.5 -164.5t93.5 -197.5t31 -210q0 -217 -99 -395.5t-241 -275.5z" />
    <glyph glyph-name="uni03BC" unicode="&#x3bc;" horiz-adv-x="1206" 
d="M859 1002h172v-1002h-172v140q-54 -74 -133.5 -116t-171.5 -42q-143 0 -250 96v-520h-129v1444h172v-612q0 -107 73.5 -182t178.5 -75q108 0 184 75t76 182v612z" />
    <glyph glyph-name="pi" unicode="&#x3c0;" horiz-adv-x="1258" 
d="M153 0q57 145 101.5 388t52.5 442q-176 0 -250 -32l-20 115q92 52 309 52h881l-15 -135h-177v-542q0 -192 30 -288h-160q-32 53 -32 271v559l-406 1q-11 -198 -56 -455t-99 -376h-159z" />
    <glyph glyph-name="Wgrave" unicode="&#x1e80;" horiz-adv-x="2042" 
d="M963 1554l-225 259l92 67l252 -326h-119zM473 0l-402 1408h186l334 -1161l351 1161h158l351 -1161l336 1161h185l-403 -1408h-210l-338 1083l-338 -1083h-210z" />
    <glyph glyph-name="wgrave" unicode="&#x1e81;" horiz-adv-x="1597" 
d="M866 1153h-119l-225 259l92 67zM1377 983h182l-339 -984h-157l-266 758l-267 -758h-158l-333 984h180l243 -753l267 753h133l267 -755z" />
    <glyph glyph-name="Wacute" unicode="&#x1e82;" horiz-adv-x="2042" 
d="M955 1554l251 326l92 -67l-224 -259h-119zM473 0l-402 1408h186l334 -1161l351 1161h158l351 -1161l336 1161h185l-403 -1408h-210l-338 1083l-338 -1083h-210z" />
    <glyph glyph-name="wacute" unicode="&#x1e83;" horiz-adv-x="1597" 
d="M1082 1412l-224 -259h-119l251 326zM1377 983h182l-339 -984h-157l-266 758l-267 -758h-158l-333 984h180l243 -753l267 753h133l267 -755z" />
    <glyph glyph-name="Wdieresis" unicode="&#x1e84;" horiz-adv-x="2042" 
d="M834 1536q-48 0 -82.5 34.5t-34.5 82.5t34.5 82t82.5 34q47 0 81.5 -34t34.5 -82t-34.5 -82.5t-81.5 -34.5zM1208 1536q-48 0 -82.5 34.5t-34.5 82.5t34.5 82t82.5 34q47 0 81.5 -34t34.5 -82t-34.5 -82.5t-81.5 -34.5zM473 0l-402 1408h186l334 -1161l351 1161h158
l351 -1161l336 1161h185l-403 -1408h-210l-338 1083l-338 -1083h-210z" />
    <glyph glyph-name="wdieresis" unicode="&#x1e85;" horiz-adv-x="1597" 
d="M618 1214q-48 0 -82.5 34.5t-34.5 82.5t34.5 82t82.5 34q47 0 81.5 -34t34.5 -82t-34.5 -82.5t-81.5 -34.5zM992 1214q-48 0 -82.5 34.5t-34.5 82.5t34.5 82t82.5 34q47 0 81.5 -34t34.5 -82t-34.5 -82.5t-81.5 -34.5zM1377 983h182l-339 -984h-157l-266 758l-267 -758
h-158l-333 984h180l243 -753l267 753h133l267 -755z" />
    <glyph glyph-name="uni1EA0" unicode="&#x1ea0;" horiz-adv-x="1372" 
d="M1312 0h-187l-121 337h-637l-120 -337h-187l519 1408h214zM424 495h524l-262 733zM685 -279q47 0 81.5 -34.5t34.5 -81.5q0 -49 -34 -83t-82 -34t-82.5 34t-34.5 83q0 47 34.5 81.5t82.5 34.5z" />
    <glyph glyph-name="uni1EA1" unicode="&#x1ea1;" horiz-adv-x="1073" 
d="M403 -19q-131 0 -215.5 67.5t-84.5 201.5q0 74 27 128.5t80 89.5t115.5 55.5t149.5 35.5l159 26q87 16 87 91q0 100 -61.5 146.5t-155.5 46.5q-92 0 -154 -45t-73 -138l-156 33q22 140 123 210.5t268 70.5q78 0 142.5 -17.5t119 -55t85 -106t30.5 -161.5v-406
q0 -76 22.5 -102.5t77.5 -26.5h16v-125h-86q-159 0 -186 133h-8q-112 -152 -322 -152zM443 121q131 0 211 95t80 260l-260 -50q-103 -17 -152.5 -54.5t-49.5 -107.5q0 -73 47.5 -108t123.5 -35zM538 -512q-48 0 -82.5 34t-34.5 83q0 47 34.5 81.5t82.5 34.5q47 0 81.5 -34.5
t34.5 -81.5q0 -49 -34 -83t-82 -34z" />
    <glyph glyph-name="uni1EA2" unicode="&#x1ea2;" horiz-adv-x="1372" 
d="M674 1850q-44 0 -86 -31l-51 69q60 49 138 49q82 0 133.5 -47t51.5 -121q0 -116 -130 -157v-76h-88v119q119 24 119 110q0 37 -23 61t-64 24zM1125 0l-121 337h-637l-120 -337h-187l519 1408h214l519 -1408h-187zM424 495h524l-262 733z" />
    <glyph glyph-name="uni1EA3" unicode="&#x1ea3;" horiz-adv-x="1073" 
d="M497 1079v119q119 26 119 110q0 37 -23 61.5t-64 24.5q-45 0 -86 -32l-51 70q59 48 138 48q82 0 133.5 -47t51.5 -121q0 -117 -130 -156v-77h-88zM403 -19q-131 0 -215.5 67.5t-84.5 201.5q0 74 27 128.5t80 89.5t115.5 55.5t149.5 35.5l159 26q87 16 87 91
q0 100 -61.5 146.5t-155.5 46.5q-92 0 -154 -45t-73 -138l-156 33q22 140 123 210.5t268 70.5q78 0 142.5 -17.5t119 -55t85 -106t30.5 -161.5v-406q0 -76 22.5 -102.5t77.5 -26.5h16v-125h-86q-159 0 -186 133h-8q-112 -152 -322 -152zM443 121q131 0 211 95t80 260
l-260 -50q-103 -17 -152.5 -54.5t-49.5 -107.5q0 -73 47.5 -108t123.5 -35z" />
    <glyph glyph-name="uni1EA4" unicode="&#x1ea4;" horiz-adv-x="1372" 
d="M960 2207l-224 -259h-119l251 326zM683 1766l-156 -212h-118l211 295h128l211 -295h-119zM1125 0l-121 337h-637l-120 -337h-187l519 1408h214l519 -1408h-187zM424 495h524l-262 733z" />
    <glyph glyph-name="uni1EA5" unicode="&#x1ea5;" horiz-adv-x="1073" 
d="M472 1630l251 326l92 -67l-224 -259h-119zM382 1165h-118l211 295h128l211 -295h-119l-157 212zM403 -19q-131 0 -215.5 67.5t-84.5 201.5q0 74 27 128.5t80 89.5t115.5 55.5t149.5 35.5l159 26q87 16 87 91q0 100 -61.5 146.5t-155.5 46.5q-92 0 -154 -45t-73 -138
l-156 33q22 140 123 210.5t268 70.5q78 0 142.5 -17.5t119 -55t85 -106t30.5 -161.5v-406q0 -76 22.5 -102.5t77.5 -26.5h16v-125h-86q-159 0 -186 133h-8q-112 -152 -322 -152zM443 121q131 0 211 95t80 260l-260 -50q-103 -17 -152.5 -54.5t-49.5 -107.5q0 -73 47.5 -108
t123.5 -35z" />
    <glyph glyph-name="uni1EA6" unicode="&#x1ea6;" horiz-adv-x="1372" 
d="M744 1948h-119l-225 259l92 67zM409 1554l211 295h128l211 -295h-119l-157 212l-156 -212h-118zM1125 0l-121 337h-637l-120 -337h-187l519 1408h214l519 -1408h-187zM424 495h524l-262 733z" />
    <glyph glyph-name="uni1EA7" unicode="&#x1ea7;" horiz-adv-x="1073" 
d="M480 1630l-225 259l92 67l252 -326h-119zM382 1165h-118l211 295h128l211 -295h-119l-157 212zM403 -19q-131 0 -215.5 67.5t-84.5 201.5q0 74 27 128.5t80 89.5t115.5 55.5t149.5 35.5l159 26q87 16 87 91q0 100 -61.5 146.5t-155.5 46.5q-92 0 -154 -45t-73 -138
l-156 33q22 140 123 210.5t268 70.5q78 0 142.5 -17.5t119 -55t85 -106t30.5 -161.5v-406q0 -76 22.5 -102.5t77.5 -26.5h16v-125h-86q-159 0 -186 133h-8q-112 -152 -322 -152zM443 121q131 0 211 95t80 260l-260 -50q-103 -17 -152.5 -54.5t-49.5 -107.5q0 -73 47.5 -108
t123.5 -35z" />
    <glyph glyph-name="uni1EA8" unicode="&#x1ea8;" horiz-adv-x="1372" 
d="M672 2244q-44 0 -86 -31l-51 69q60 49 138 49q82 0 133.5 -47t51.5 -121q0 -116 -130 -157v-76h-88v119q119 24 119 110q0 37 -23 61t-64 24zM683 1766l-156 -212h-118l211 295h128l211 -295h-119zM1125 0l-121 337h-637l-120 -337h-187l519 1408h214l519 -1408h-187z
M424 495h524l-262 733z" />
    <glyph glyph-name="uni1EA9" unicode="&#x1ea9;" horiz-adv-x="1073" 
d="M495 1556v119q119 26 119 110q0 37 -23 61.5t-64 24.5q-45 0 -86 -32l-51 70q59 48 138 48q82 0 133.5 -47t51.5 -121q0 -117 -130 -156v-77h-88zM382 1165h-118l211 295h128l211 -295h-119l-157 212zM403 -19q-131 0 -215.5 67.5t-84.5 201.5q0 74 27 128.5t80 89.5
t115.5 55.5t149.5 35.5l159 26q87 16 87 91q0 100 -61.5 146.5t-155.5 46.5q-92 0 -154 -45t-73 -138l-156 33q22 140 123 210.5t268 70.5q78 0 142.5 -17.5t119 -55t85 -106t30.5 -161.5v-406q0 -76 22.5 -102.5t77.5 -26.5h16v-125h-86q-159 0 -186 133h-8
q-112 -152 -322 -152zM443 121q131 0 211 95t80 260l-260 -50q-103 -17 -152.5 -54.5t-49.5 -107.5q0 -73 47.5 -108t123.5 -35z" />
    <glyph glyph-name="uni1EAA" unicode="&#x1eaa;" horiz-adv-x="1372" 
d="M552 2111q-51 0 -80 -42.5t-29 -111.5h-94q0 107 54.5 175t147.5 68q58 0 96 -25t70 -68q36 -47 56 -59q24 -16 52 -16q51 0 78.5 40.5t27.5 110.5h97q0 -106 -54.5 -173.5t-148.5 -67.5q-61 0 -99.5 26t-70.5 70q-17 24 -27.5 36.5t-31 24.5t-44.5 12zM620 1849h128
l211 -295h-119l-157 212l-156 -212h-118zM1125 0l-121 337h-637l-120 -337h-187l519 1408h214l519 -1408h-187zM424 495h524l-262 733z" />
    <glyph glyph-name="uni1EAB" unicode="&#x1eab;" horiz-adv-x="1073" 
d="M667 1621q-103 0 -164 97q-34 51 -80 51q-41 0 -64.5 -37t-23.5 -97h-96q0 101 49 165t132 64q103 0 162 -98q30 -49 82 -49q41 0 64 35.5t23 96.5h97q0 -99 -49 -163.5t-132 -64.5zM382 1165h-118l211 295h128l211 -295h-119l-157 212zM403 -19q-131 0 -215.5 67.5
t-84.5 201.5q0 74 27 128.5t80 89.5t115.5 55.5t149.5 35.5l159 26q87 16 87 91q0 100 -61.5 146.5t-155.5 46.5q-92 0 -154 -45t-73 -138l-156 33q22 140 123 210.5t268 70.5q78 0 142.5 -17.5t119 -55t85 -106t30.5 -161.5v-406q0 -76 22.5 -102.5t77.5 -26.5h16v-125h-86
q-159 0 -186 133h-8q-112 -152 -322 -152zM443 121q131 0 211 95t80 260l-260 -50q-103 -17 -152.5 -54.5t-49.5 -107.5q0 -73 47.5 -108t123.5 -35z" />
    <glyph glyph-name="uni1EAC" unicode="&#x1eac;" horiz-adv-x="1372" 
d="M683 1766l-156 -212h-118l211 295h128l211 -295h-119zM1312 0h-187l-121 337h-637l-120 -337h-187l519 1408h214zM424 495h524l-262 733zM685 -279q47 0 81.5 -34.5t34.5 -81.5q0 -49 -34 -83t-82 -34t-82.5 34t-34.5 83q0 47 34.5 81.5t82.5 34.5z" />
    <glyph glyph-name="uni1EAD" unicode="&#x1ead;" horiz-adv-x="1073" 
d="M382 1165h-118l211 295h128l211 -295h-119l-157 212zM403 -19q-131 0 -215.5 67.5t-84.5 201.5q0 74 27 128.5t80 89.5t115.5 55.5t149.5 35.5l159 26q87 16 87 91q0 100 -61.5 146.5t-155.5 46.5q-92 0 -154 -45t-73 -138l-156 33q22 140 123 210.5t268 70.5
q78 0 142.5 -17.5t119 -55t85 -106t30.5 -161.5v-406q0 -76 22.5 -102.5t77.5 -26.5h16v-125h-86q-159 0 -186 133h-8q-112 -152 -322 -152zM443 121q131 0 211 95t80 260l-260 -50q-103 -17 -152.5 -54.5t-49.5 -107.5q0 -73 47.5 -108t123.5 -35zM538 -512q-48 0 -82.5 34
t-34.5 83q0 47 34.5 81.5t82.5 34.5q47 0 81.5 -34.5t34.5 -81.5q0 -49 -34 -83t-82 -34z" />
    <glyph glyph-name="uni1EAE" unicode="&#x1eae;" horiz-adv-x="1372" 
d="M963 2155l-224 -259h-119l251 326zM683 1554q-155 0 -246.5 67t-91.5 203h107q0 -91 62.5 -135.5t168.5 -44.5q108 0 171 44.5t63 135.5h107q0 -137 -92 -203.5t-249 -66.5zM1125 0l-121 337h-637l-120 -337h-187l519 1408h214l519 -1408h-187zM424 495h524l-262 733z
" />
    <glyph glyph-name="uni1EAF" unicode="&#x1eaf;" horiz-adv-x="1073" 
d="M474 1630l251 326l92 -67l-224 -259h-119zM538 1143q-149 0 -243.5 86t-94.5 231h113q0 -99 62.5 -162.5t162.5 -63.5q102 0 165 63t63 163h113q0 -145 -95 -231t-246 -86zM403 -19q-131 0 -215.5 67.5t-84.5 201.5q0 74 27 128.5t80 89.5t115.5 55.5t149.5 35.5l159 26
q87 16 87 91q0 100 -61.5 146.5t-155.5 46.5q-92 0 -154 -45t-73 -138l-156 33q22 140 123 210.5t268 70.5q78 0 142.5 -17.5t119 -55t85 -106t30.5 -161.5v-406q0 -76 22.5 -102.5t77.5 -26.5h16v-125h-86q-159 0 -186 133h-8q-112 -152 -322 -152zM443 121q131 0 211 95
t80 260l-260 -50q-103 -17 -152.5 -54.5t-49.5 -107.5q0 -73 47.5 -108t123.5 -35z" />
    <glyph glyph-name="uni1EB0" unicode="&#x1eb0;" horiz-adv-x="1372" 
d="M747 1896h-119l-225 259l92 67zM683 1554q-155 0 -246.5 67t-91.5 203h107q0 -91 62.5 -135.5t168.5 -44.5q108 0 171 44.5t63 135.5h107q0 -137 -92 -203.5t-249 -66.5zM1125 0l-121 337h-637l-120 -337h-187l519 1408h214l519 -1408h-187zM424 495h524l-262 733z" />
    <glyph glyph-name="uni1EB1" unicode="&#x1eb1;" horiz-adv-x="1073" 
d="M482 1630l-225 259l92 67l252 -326h-119zM538 1143q-149 0 -243.5 86t-94.5 231h113q0 -99 62.5 -162.5t162.5 -63.5q102 0 165 63t63 163h113q0 -145 -95 -231t-246 -86zM403 -19q-131 0 -215.5 67.5t-84.5 201.5q0 74 27 128.5t80 89.5t115.5 55.5t149.5 35.5l159 26
q87 16 87 91q0 100 -61.5 146.5t-155.5 46.5q-92 0 -154 -45t-73 -138l-156 33q22 140 123 210.5t268 70.5q78 0 142.5 -17.5t119 -55t85 -106t30.5 -161.5v-406q0 -76 22.5 -102.5t77.5 -26.5h16v-125h-86q-159 0 -186 133h-8q-112 -152 -322 -152zM443 121q131 0 211 95
t80 260l-260 -50q-103 -17 -152.5 -54.5t-49.5 -107.5q0 -73 47.5 -108t123.5 -35z" />
    <glyph glyph-name="uni1EB2" unicode="&#x1eb2;" horiz-adv-x="1372" 
d="M675 2192q-44 0 -86 -31l-51 69q60 49 138 49q82 0 133.5 -47t51.5 -121q0 -116 -130 -157v-76h-88v119q119 24 119 110q0 37 -23 61t-64 24zM683 1554q-155 0 -246.5 67t-91.5 203h107q0 -91 62.5 -135.5t168.5 -44.5q108 0 171 44.5t63 135.5h107q0 -137 -92 -203.5
t-249 -66.5zM1125 0l-121 337h-637l-120 -337h-187l519 1408h214l519 -1408h-187zM424 495h524l-262 733z" />
    <glyph glyph-name="uni1EB3" unicode="&#x1eb3;" horiz-adv-x="1073" 
d="M497 1556v119q119 26 119 110q0 37 -23 61.5t-64 24.5q-45 0 -86 -32l-51 70q59 48 138 48q82 0 133.5 -47t51.5 -121q0 -117 -130 -156v-77h-88zM538 1143q-149 0 -243.5 86t-94.5 231h113q0 -99 62.5 -162.5t162.5 -63.5q102 0 165 63t63 163h113q0 -145 -95 -231
t-246 -86zM403 -19q-131 0 -215.5 67.5t-84.5 201.5q0 74 27 128.5t80 89.5t115.5 55.5t149.5 35.5l159 26q87 16 87 91q0 100 -61.5 146.5t-155.5 46.5q-92 0 -154 -45t-73 -138l-156 33q22 140 123 210.5t268 70.5q78 0 142.5 -17.5t119 -55t85 -106t30.5 -161.5v-406
q0 -76 22.5 -102.5t77.5 -26.5h16v-125h-86q-159 0 -186 133h-8q-112 -152 -322 -152zM443 121q131 0 211 95t80 260l-260 -50q-103 -17 -152.5 -54.5t-49.5 -107.5q0 -73 47.5 -108t123.5 -35z" />
    <glyph glyph-name="uni1EB4" unicode="&#x1eb4;" horiz-adv-x="1372" 
d="M555 2059q-51 0 -80 -42.5t-29 -111.5h-94q0 107 54.5 175t147.5 68q58 0 96 -25t70 -68q36 -47 56 -59q24 -16 52 -16q51 0 78.5 40.5t27.5 110.5h97q0 -106 -54.5 -173.5t-148.5 -67.5q-61 0 -99.5 26t-70.5 70q-17 24 -27.5 36.5t-31 24.5t-44.5 12zM683 1554
q-155 0 -246.5 67t-91.5 203h107q0 -91 62.5 -135.5t168.5 -44.5q108 0 171 44.5t63 135.5h107q0 -137 -92 -203.5t-249 -66.5zM1125 0l-121 337h-637l-120 -337h-187l519 1408h214l519 -1408h-187zM424 495h524l-262 733z" />
    <glyph glyph-name="uni1EB5" unicode="&#x1eb5;" horiz-adv-x="1073" 
d="M669 1621q-103 0 -164 97q-34 51 -80 51q-41 0 -64.5 -37t-23.5 -97h-96q0 101 49 165t132 64q103 0 162 -98q30 -49 82 -49q41 0 64 35.5t23 96.5h97q0 -99 -49 -163.5t-132 -64.5zM538 1143q-149 0 -243.5 86t-94.5 231h113q0 -99 62.5 -162.5t162.5 -63.5
q102 0 165 63t63 163h113q0 -145 -95 -231t-246 -86zM403 -19q-131 0 -215.5 67.5t-84.5 201.5q0 74 27 128.5t80 89.5t115.5 55.5t149.5 35.5l159 26q87 16 87 91q0 100 -61.5 146.5t-155.5 46.5q-92 0 -154 -45t-73 -138l-156 33q22 140 123 210.5t268 70.5
q78 0 142.5 -17.5t119 -55t85 -106t30.5 -161.5v-406q0 -76 22.5 -102.5t77.5 -26.5h16v-125h-86q-159 0 -186 133h-8q-112 -152 -322 -152zM443 121q131 0 211 95t80 260l-260 -50q-103 -17 -152.5 -54.5t-49.5 -107.5q0 -73 47.5 -108t123.5 -35z" />
    <glyph glyph-name="uni1EB6" unicode="&#x1eb6;" horiz-adv-x="1372" 
d="M683 1554q-155 0 -246.5 67t-91.5 203h107q0 -91 62.5 -135.5t168.5 -44.5q108 0 171 44.5t63 135.5h107q0 -137 -92 -203.5t-249 -66.5zM1312 0h-187l-121 337h-637l-120 -337h-187l519 1408h214zM424 495h524l-262 733zM685 -279q47 0 81.5 -34.5t34.5 -81.5
q0 -49 -34 -83t-82 -34t-82.5 34t-34.5 83q0 47 34.5 81.5t82.5 34.5z" />
    <glyph glyph-name="uni1EB7" unicode="&#x1eb7;" horiz-adv-x="1073" 
d="M538 1143q-149 0 -243.5 86t-94.5 231h113q0 -99 62.5 -162.5t162.5 -63.5q102 0 165 63t63 163h113q0 -145 -95 -231t-246 -86zM403 -19q-131 0 -215.5 67.5t-84.5 201.5q0 74 27 128.5t80 89.5t115.5 55.5t149.5 35.5l159 26q87 16 87 91q0 100 -61.5 146.5
t-155.5 46.5q-92 0 -154 -45t-73 -138l-156 33q22 140 123 210.5t268 70.5q78 0 142.5 -17.5t119 -55t85 -106t30.5 -161.5v-406q0 -76 22.5 -102.5t77.5 -26.5h16v-125h-86q-159 0 -186 133h-8q-112 -152 -322 -152zM443 121q131 0 211 95t80 260l-260 -50
q-103 -17 -152.5 -54.5t-49.5 -107.5q0 -73 47.5 -108t123.5 -35zM538 -512q-48 0 -82.5 34t-34.5 83q0 47 34.5 81.5t82.5 34.5q47 0 81.5 -34.5t34.5 -81.5q0 -49 -34 -83t-82 -34z" />
    <glyph glyph-name="uni1EB8" unicode="&#x1eb8;" horiz-adv-x="1098" 
d="M976 1245h-572v-461h504v-161h-504v-460h572v-163h-755v1408h755v-163zM602 -279q47 0 81.5 -34.5t34.5 -81.5q0 -49 -34 -83t-82 -34t-82.5 34t-34.5 83q0 47 34.5 81.5t82.5 34.5z" />
    <glyph glyph-name="uni1EB9" unicode="&#x1eb9;" horiz-adv-x="1131" 
d="M1036 511l-2 -47h-768q4 -164 94 -251.5t224 -87.5q90 0 163 47t112 130l156 -33q-53 -134 -168 -211t-261 -77q-219 0 -354 137t-135 374q0 236 135.5 373t348.5 137q206 0 330.5 -126t124.5 -365zM581 869q-122 0 -204.5 -69.5t-103.5 -202.5h589q-10 133 -86 202.5
t-195 69.5zM593 -280q47 0 81.5 -34.5t34.5 -81.5q0 -49 -34 -83t-82 -34t-82.5 34t-34.5 83q0 47 34.5 81.5t82.5 34.5z" />
    <glyph glyph-name="uni1EBA" unicode="&#x1eba;" horiz-adv-x="1098" 
d="M591 1850q-44 0 -86 -31l-51 69q60 49 138 49q82 0 133.5 -47t51.5 -121q0 -116 -130 -157v-76h-88v119q119 24 119 110q0 37 -23 61t-64 24zM976 1245h-572v-461h504v-161h-504v-460h572v-163h-755v1408h755v-163z" />
    <glyph glyph-name="uni1EBB" unicode="&#x1ebb;" horiz-adv-x="1131" 
d="M576 1397q-45 0 -86 -32l-51 70q59 48 138 48q82 0 133.5 -47t51.5 -121q0 -117 -130 -156v-77h-88v119q119 26 119 110q0 37 -23 61.5t-64 24.5zM1036 511l-2 -47h-768q4 -164 94 -251.5t224 -87.5q90 0 163 47t112 130l156 -33q-53 -134 -168 -211t-261 -77
q-219 0 -354 137t-135 374q0 236 135.5 373t348.5 137q206 0 330.5 -126t124.5 -365zM581 869q-122 0 -204.5 -69.5t-103.5 -202.5h589q-10 133 -86 202.5t-195 69.5z" />
    <glyph glyph-name="uni1EBC" unicode="&#x1ebc;" horiz-adv-x="1098" 
d="M471 1717q-51 0 -80 -42.5t-29 -111.5h-94q0 107 54.5 175t147.5 68q58 0 96 -25t70 -68q36 -47 56 -59q24 -16 52 -16q51 0 78.5 40.5t27.5 110.5h97q0 -106 -54.5 -173.5t-148.5 -67.5q-61 0 -99.5 26t-70.5 70q-17 24 -27.5 36.5t-31 24.5t-44.5 12zM976 1245h-572
v-461h504v-161h-504v-460h572v-163h-755v1408h755v-163z" />
    <glyph glyph-name="uni1EBD" unicode="&#x1ebd;" horiz-adv-x="1131" 
d="M472 1295q-41 0 -64.5 -37t-23.5 -97h-96q0 101 49 165t132 64q103 0 162 -98q30 -49 82 -49q41 0 64 35.5t23 96.5h97q0 -99 -49 -163.5t-132 -64.5q-103 0 -164 97q-34 51 -80 51zM1036 511l-2 -47h-768q4 -164 94 -251.5t224 -87.5q90 0 163 47t112 130l156 -33
q-53 -134 -168 -211t-261 -77q-219 0 -354 137t-135 374q0 236 135.5 373t348.5 137q206 0 330.5 -126t124.5 -365zM581 869q-122 0 -204.5 -69.5t-103.5 -202.5h589q-10 133 -86 202.5t-195 69.5z" />
    <glyph glyph-name="uni1EBE" unicode="&#x1ebe;" horiz-adv-x="1098" 
d="M877 2207l-224 -259h-119l251 326zM600 1766l-156 -212h-118l211 295h128l211 -295h-119zM976 1245h-572v-461h504v-161h-504v-460h572v-163h-755v1408h755v-163z" />
    <glyph glyph-name="uni1EBF" unicode="&#x1ebf;" horiz-adv-x="1131" 
d="M862 1892l-224 -259h-119l251 326zM585 1380l-156 -212h-118l211 295h128l211 -295h-119zM1036 511l-2 -47h-768q4 -164 94 -251.5t224 -87.5q90 0 163 47t112 130l156 -33q-53 -134 -168 -211t-261 -77q-219 0 -354 137t-135 374q0 236 135.5 373t348.5 137
q206 0 330.5 -126t124.5 -365zM581 869q-122 0 -204.5 -69.5t-103.5 -202.5h589q-10 133 -86 202.5t-195 69.5z" />
    <glyph glyph-name="uni1EC0" unicode="&#x1ec0;" horiz-adv-x="1098" 
d="M661 1948h-119l-225 259l92 67zM326 1554l211 295h128l211 -295h-119l-157 212l-156 -212h-118zM976 1245h-572v-461h504v-161h-504v-460h572v-163h-755v1408h755v-163z" />
    <glyph glyph-name="uni1EC1" unicode="&#x1ec1;" horiz-adv-x="1131" 
d="M646 1633h-119l-225 259l92 67zM311 1168l211 295h128l211 -295h-119l-157 212l-156 -212h-118zM1036 511l-2 -47h-768q4 -164 94 -251.5t224 -87.5q90 0 163 47t112 130l156 -33q-53 -134 -168 -211t-261 -77q-219 0 -354 137t-135 374q0 236 135.5 373t348.5 137
q206 0 330.5 -126t124.5 -365zM581 869q-122 0 -204.5 -69.5t-103.5 -202.5h589q-10 133 -86 202.5t-195 69.5z" />
    <glyph glyph-name="uni1EC2" unicode="&#x1ec2;" horiz-adv-x="1098" 
d="M589 2244q-44 0 -86 -31l-51 69q60 49 138 49q82 0 133.5 -47t51.5 -121q0 -116 -130 -157v-76h-88v119q119 24 119 110q0 37 -23 61t-64 24zM600 1766l-156 -212h-118l211 295h128l211 -295h-119zM976 1245h-572v-461h504v-161h-504v-460h572v-163h-755v1408h755v-163z
" />
    <glyph glyph-name="uni1EC3" unicode="&#x1ec3;" horiz-adv-x="1131" 
d="M574 1874q-45 0 -86 -32l-51 70q59 48 138 48q82 0 133.5 -47t51.5 -121q0 -117 -130 -156v-77h-88v119q119 26 119 110q0 37 -23 61.5t-64 24.5zM585 1380l-156 -212h-118l211 295h128l211 -295h-119zM1036 511l-2 -47h-768q4 -164 94 -251.5t224 -87.5q90 0 163 47
t112 130l156 -33q-53 -134 -168 -211t-261 -77q-219 0 -354 137t-135 374q0 236 135.5 373t348.5 137q206 0 330.5 -126t124.5 -365zM581 869q-122 0 -204.5 -69.5t-103.5 -202.5h589q-10 133 -86 202.5t-195 69.5z" />
    <glyph glyph-name="uni1EC4" unicode="&#x1ec4;" horiz-adv-x="1098" 
d="M469 2111q-51 0 -80 -42.5t-29 -111.5h-94q0 107 54.5 175t147.5 68q58 0 96 -25t70 -68q36 -47 56 -59q24 -16 52 -16q51 0 78.5 40.5t27.5 110.5h97q0 -106 -54.5 -173.5t-148.5 -67.5q-61 0 -99.5 26t-70.5 70q-17 24 -27.5 36.5t-31 24.5t-44.5 12zM537 1849h128
l211 -295h-119l-157 212l-156 -212h-118zM976 1245h-572v-461h504v-161h-504v-460h572v-163h-755v1408h755v-163z" />
    <glyph glyph-name="uni1EC5" unicode="&#x1ec5;" horiz-adv-x="1131" 
d="M470 1772q-41 0 -64.5 -37t-23.5 -97h-96q0 101 49 165t132 64q103 0 162 -98q30 -49 82 -49q41 0 64 35.5t23 96.5h97q0 -99 -49 -163.5t-132 -64.5q-103 0 -164 97q-34 51 -80 51zM522 1463h128l211 -295h-119l-157 212l-156 -212h-118zM1036 511l-2 -47h-768
q4 -164 94 -251.5t224 -87.5q90 0 163 47t112 130l156 -33q-53 -134 -168 -211t-261 -77q-219 0 -354 137t-135 374q0 236 135.5 373t348.5 137q206 0 330.5 -126t124.5 -365zM581 869q-122 0 -204.5 -69.5t-103.5 -202.5h589q-10 133 -86 202.5t-195 69.5z" />
    <glyph glyph-name="uni1EC6" unicode="&#x1ec6;" horiz-adv-x="1098" 
d="M600 1766l-156 -212h-118l211 295h128l211 -295h-119zM976 1245h-572v-461h504v-161h-504v-460h572v-163h-755v1408h755v-163zM602 -279q47 0 81.5 -34.5t34.5 -81.5q0 -49 -34 -83t-82 -34t-82.5 34t-34.5 83q0 47 34.5 81.5t82.5 34.5z" />
    <glyph glyph-name="uni1EC7" unicode="&#x1ec7;" horiz-adv-x="1131" 
d="M585 1380l-156 -212h-118l211 295h128l211 -295h-119zM1036 511l-2 -47h-768q4 -164 94 -251.5t224 -87.5q90 0 163 47t112 130l156 -33q-53 -134 -168 -211t-261 -77q-219 0 -354 137t-135 374q0 236 135.5 373t348.5 137q206 0 330.5 -126t124.5 -365zM581 869
q-122 0 -204.5 -69.5t-103.5 -202.5h589q-10 133 -86 202.5t-195 69.5zM593 -280q47 0 81.5 -34.5t34.5 -81.5q0 -49 -34 -83t-82 -34t-82.5 34t-34.5 83q0 47 34.5 81.5t82.5 34.5z" />
    <glyph glyph-name="uni1EC8" unicode="&#x1ec8;" horiz-adv-x="621" 
d="M267 1536v119q119 24 119 110q0 37 -23 61t-64 24q-44 0 -86 -31l-51 69q60 49 138 49q82 0 133.5 -47t51.5 -121q0 -116 -130 -157v-76h-88zM221 0v1408h179v-1408h-179z" />
    <glyph glyph-name="uni1EC9" unicode="&#x1ec9;" horiz-adv-x="526" 
d="M221 1079v119q119 26 119 110q0 37 -23 61.5t-64 24.5q-45 0 -86 -32l-51 70q59 48 138 48q82 0 133.5 -47t51.5 -121q0 -117 -130 -156v-77h-88zM176 0v983h174v-983h-174z" />
    <glyph glyph-name="uni1ECA" unicode="&#x1eca;" horiz-adv-x="621" 
d="M221 0v1408h179v-1408h-179zM310 -512q-48 0 -82.5 34t-34.5 83q0 47 34.5 81.5t82.5 34.5q47 0 81.5 -34.5t34.5 -81.5q0 -49 -34 -83t-82 -34z" />
    <glyph glyph-name="uni1ECB" unicode="&#x1ecb;" horiz-adv-x="526" 
d="M264 1214q-48 0 -82.5 34.5t-34.5 82.5t34.5 82t82.5 34q47 0 81.5 -34t34.5 -82t-34.5 -82.5t-81.5 -34.5zM176 0v983h174v-983h-174zM264 -512q-48 0 -82.5 34t-34.5 83q0 47 34.5 81.5t82.5 34.5q47 0 81.5 -34.5t34.5 -81.5q0 -49 -34 -83t-82 -34z" />
    <glyph glyph-name="uni1ECC" unicode="&#x1ecc;" horiz-adv-x="1646" 
d="M824 -19q-149 0 -277 50.5t-222.5 142t-148 228.5t-53.5 303q0 165 54 301.5t148 228.5t222 142t277 50q147 0 275 -50.5t222 -142t148 -228t54 -301.5t-54 -302.5t-148 -229t-222 -142t-275 -50.5zM824 150q225 0 372.5 148.5t147.5 406.5q0 129 -40.5 234t-111 174
t-165 106t-203.5 37q-110 0 -205 -37t-166 -106t-111.5 -174t-40.5 -234q0 -130 40.5 -236t111.5 -175t166 -106.5t205 -37.5zM824 -512q-48 0 -82.5 34t-34.5 83q0 47 34.5 81.5t82.5 34.5q47 0 81.5 -34.5t34.5 -81.5q0 -49 -34 -83t-82 -34z" />
    <glyph glyph-name="uni1ECD" unicode="&#x1ecd;" horiz-adv-x="1180" 
d="M590 -19q-140 0 -252 61t-177.5 178.5t-65.5 271.5q0 231 139.5 370.5t355.5 139.5q217 0 356 -139.5t139 -370.5q0 -232 -139.5 -371.5t-355.5 -139.5zM589 125q140 0 232.5 101t92.5 266q0 164 -92.5 265t-232.5 101q-139 0 -230.5 -101t-91.5 -265q0 -165 91.5 -266
t230.5 -101zM590 -512q-48 0 -82.5 34t-34.5 83q0 47 34.5 81.5t82.5 34.5q47 0 81.5 -34.5t34.5 -81.5q0 -49 -34 -83t-82 -34z" />
    <glyph glyph-name="uni1ECE" unicode="&#x1ece;" horiz-adv-x="1646" 
d="M781 1536v119q119 24 119 110q0 37 -23 61t-64 24q-44 0 -86 -31l-51 69q60 49 138 49q82 0 133.5 -47t51.5 -121q0 -116 -130 -157v-76h-88zM824 -19q-149 0 -277 50.5t-222.5 142t-148 228.5t-53.5 303q0 165 54 301.5t148 228.5t222 142t277 50q147 0 275 -50.5
t222 -142t148 -228t54 -301.5t-54 -302.5t-148 -229t-222 -142t-275 -50.5zM824 150q225 0 372.5 148.5t147.5 406.5q0 129 -40.5 234t-111 174t-165 106t-203.5 37q-110 0 -205 -37t-166 -106t-111.5 -174t-40.5 -234q0 -130 40.5 -236t111.5 -175t166 -106.5t205 -37.5z
" />
    <glyph glyph-name="uni1ECF" unicode="&#x1ecf;" horiz-adv-x="1180" 
d="M547 1078v119q119 26 119 110q0 37 -23 61.5t-64 24.5q-45 0 -86 -32l-51 70q59 48 138 48q82 0 133.5 -47t51.5 -121q0 -117 -130 -156v-77h-88zM590 -19q-140 0 -252 61t-177.5 178.5t-65.5 271.5q0 231 139.5 370.5t355.5 139.5q217 0 356 -139.5t139 -370.5
q0 -232 -139.5 -371.5t-355.5 -139.5zM589 125q140 0 232.5 101t92.5 266q0 164 -92.5 265t-232.5 101q-139 0 -230.5 -101t-91.5 -265q0 -165 91.5 -266t230.5 -101z" />
    <glyph glyph-name="uni1ED0" unicode="&#x1ed0;" horiz-adv-x="1646" 
d="M756 1948l251 326l92 -67l-224 -259h-119zM666 1554h-118l211 295h128l211 -295h-119l-157 212zM824 -19q-149 0 -277 50.5t-222.5 142t-148 228.5t-53.5 303q0 165 54 301.5t148 228.5t222 142t277 50q147 0 275 -50.5t222 -142t148 -228t54 -301.5t-54 -302.5
t-148 -229t-222 -142t-275 -50.5zM824 150q225 0 372.5 148.5t147.5 406.5q0 129 -40.5 234t-111 174t-165 106t-203.5 37q-110 0 -205 -37t-166 -106t-111.5 -174t-40.5 -234q0 -130 40.5 -236t111.5 -175t166 -106.5t205 -37.5z" />
    <glyph glyph-name="uni1ED1" unicode="&#x1ed1;" horiz-adv-x="1180" 
d="M522 1629l251 326l92 -67l-224 -259h-119zM432 1164h-118l211 295h128l211 -295h-119l-157 212zM590 -19q-140 0 -252 61t-177.5 178.5t-65.5 271.5q0 231 139.5 370.5t355.5 139.5q217 0 356 -139.5t139 -370.5q0 -232 -139.5 -371.5t-355.5 -139.5zM589 125
q140 0 232.5 101t92.5 266q0 164 -92.5 265t-232.5 101q-139 0 -230.5 -101t-91.5 -265q0 -165 91.5 -266t230.5 -101z" />
    <glyph glyph-name="uni1ED2" unicode="&#x1ed2;" horiz-adv-x="1646" 
d="M764 1948l-225 259l92 67l252 -326h-119zM666 1554h-118l211 295h128l211 -295h-119l-157 212zM824 -19q-149 0 -277 50.5t-222.5 142t-148 228.5t-53.5 303q0 165 54 301.5t148 228.5t222 142t277 50q147 0 275 -50.5t222 -142t148 -228t54 -301.5t-54 -302.5t-148 -229
t-222 -142t-275 -50.5zM824 150q225 0 372.5 148.5t147.5 406.5q0 129 -40.5 234t-111 174t-165 106t-203.5 37q-110 0 -205 -37t-166 -106t-111.5 -174t-40.5 -234q0 -130 40.5 -236t111.5 -175t166 -106.5t205 -37.5z" />
    <glyph glyph-name="uni1ED3" unicode="&#x1ed3;" horiz-adv-x="1180" 
d="M530 1629l-225 259l92 67l252 -326h-119zM432 1164h-118l211 295h128l211 -295h-119l-157 212zM590 -19q-140 0 -252 61t-177.5 178.5t-65.5 271.5q0 231 139.5 370.5t355.5 139.5q217 0 356 -139.5t139 -370.5q0 -232 -139.5 -371.5t-355.5 -139.5zM589 125
q140 0 232.5 101t92.5 266q0 164 -92.5 265t-232.5 101q-139 0 -230.5 -101t-91.5 -265q0 -165 91.5 -266t230.5 -101z" />
    <glyph glyph-name="uni1ED4" unicode="&#x1ed4;" horiz-adv-x="1646" 
d="M779 1930v119q119 24 119 110q0 37 -23 61t-64 24q-44 0 -86 -31l-51 69q60 49 138 49q82 0 133.5 -47t51.5 -121q0 -116 -130 -157v-76h-88zM666 1554h-118l211 295h128l211 -295h-119l-157 212zM824 -19q-149 0 -277 50.5t-222.5 142t-148 228.5t-53.5 303
q0 165 54 301.5t148 228.5t222 142t277 50q147 0 275 -50.5t222 -142t148 -228t54 -301.5t-54 -302.5t-148 -229t-222 -142t-275 -50.5zM824 150q225 0 372.5 148.5t147.5 406.5q0 129 -40.5 234t-111 174t-165 106t-203.5 37q-110 0 -205 -37t-166 -106t-111.5 -174
t-40.5 -234q0 -130 40.5 -236t111.5 -175t166 -106.5t205 -37.5z" />
    <glyph glyph-name="uni1ED5" unicode="&#x1ed5;" horiz-adv-x="1180" 
d="M545 1555v119q119 26 119 110q0 37 -23 61.5t-64 24.5q-45 0 -86 -32l-51 70q59 48 138 48q82 0 133.5 -47t51.5 -121q0 -117 -130 -156v-77h-88zM432 1164h-118l211 295h128l211 -295h-119l-157 212zM590 -19q-140 0 -252 61t-177.5 178.5t-65.5 271.5
q0 231 139.5 370.5t355.5 139.5q217 0 356 -139.5t139 -370.5q0 -232 -139.5 -371.5t-355.5 -139.5zM589 125q140 0 232.5 101t92.5 266q0 164 -92.5 265t-232.5 101q-139 0 -230.5 -101t-91.5 -265q0 -165 91.5 -266t230.5 -101z" />
    <glyph glyph-name="uni1ED6" unicode="&#x1ed6;" horiz-adv-x="1646" 
d="M964 1942q-61 0 -99.5 26t-70.5 70q-17 24 -27.5 36.5t-31 24.5t-44.5 12q-51 0 -80 -42.5t-29 -111.5h-94q0 107 54.5 175t147.5 68q58 0 96 -25t70 -68q36 -47 56 -59q24 -16 52 -16q51 0 78.5 40.5t27.5 110.5h97q0 -106 -54.5 -173.5t-148.5 -67.5zM666 1554h-118
l211 295h128l211 -295h-119l-157 212zM824 -19q-149 0 -277 50.5t-222.5 142t-148 228.5t-53.5 303q0 165 54 301.5t148 228.5t222 142t277 50q147 0 275 -50.5t222 -142t148 -228t54 -301.5t-54 -302.5t-148 -229t-222 -142t-275 -50.5zM824 150q225 0 372.5 148.5
t147.5 406.5q0 129 -40.5 234t-111 174t-165 106t-203.5 37q-110 0 -205 -37t-166 -106t-111.5 -174t-40.5 -234q0 -130 40.5 -236t111.5 -175t166 -106.5t205 -37.5z" />
    <glyph glyph-name="uni1ED7" unicode="&#x1ed7;" horiz-adv-x="1180" 
d="M717 1620q-103 0 -164 97q-34 51 -80 51q-41 0 -64.5 -37t-23.5 -97h-96q0 101 49 165t132 64q103 0 162 -98q30 -49 82 -49q41 0 64 35.5t23 96.5h97q0 -99 -49 -163.5t-132 -64.5zM432 1164h-118l211 295h128l211 -295h-119l-157 212zM590 -19q-140 0 -252 61
t-177.5 178.5t-65.5 271.5q0 231 139.5 370.5t355.5 139.5q217 0 356 -139.5t139 -370.5q0 -232 -139.5 -371.5t-355.5 -139.5zM589 125q140 0 232.5 101t92.5 266q0 164 -92.5 265t-232.5 101q-139 0 -230.5 -101t-91.5 -265q0 -165 91.5 -266t230.5 -101z" />
    <glyph glyph-name="uni1ED8" unicode="&#x1ed8;" horiz-adv-x="1646" 
d="M666 1554h-118l211 295h128l211 -295h-119l-157 212zM824 -19q-149 0 -277 50.5t-222.5 142t-148 228.5t-53.5 303q0 165 54 301.5t148 228.5t222 142t277 50q147 0 275 -50.5t222 -142t148 -228t54 -301.5t-54 -302.5t-148 -229t-222 -142t-275 -50.5zM824 150
q225 0 372.5 148.5t147.5 406.5q0 129 -40.5 234t-111 174t-165 106t-203.5 37q-110 0 -205 -37t-166 -106t-111.5 -174t-40.5 -234q0 -130 40.5 -236t111.5 -175t166 -106.5t205 -37.5zM824 -512q-48 0 -82.5 34t-34.5 83q0 47 34.5 81.5t82.5 34.5q47 0 81.5 -34.5
t34.5 -81.5q0 -49 -34 -83t-82 -34z" />
    <glyph glyph-name="uni1ED9" unicode="&#x1ed9;" horiz-adv-x="1180" 
d="M432 1164h-118l211 295h128l211 -295h-119l-157 212zM590 -19q-140 0 -252 61t-177.5 178.5t-65.5 271.5q0 231 139.5 370.5t355.5 139.5q217 0 356 -139.5t139 -370.5q0 -232 -139.5 -371.5t-355.5 -139.5zM589 125q140 0 232.5 101t92.5 266q0 164 -92.5 265
t-232.5 101q-139 0 -230.5 -101t-91.5 -265q0 -165 91.5 -266t230.5 -101zM590 -512q-48 0 -82.5 34t-34.5 83q0 47 34.5 81.5t82.5 34.5q47 0 81.5 -34.5t34.5 -81.5q0 -49 -34 -83t-82 -34z" />
    <glyph glyph-name="uni1EDA" unicode="&#x1eda;" horiz-adv-x="1646" 
d="M1101 1813l-224 -259h-119l251 326zM1488 1478h109v-108q0 -123 -46 -178.5t-123 -55.5q-9 0 -27 2q122 -182 122 -433q0 -165 -54 -302.5t-148 -229t-222 -142t-275 -50.5q-149 0 -277 50.5t-222.5 142t-148 228.5t-53.5 303q0 165 54 301.5t148 228.5t222 142t277 50
q144 0 269 -47.5t219 -136.5q44 -19 83 -19q50 0 71.5 37t21.5 115v102zM824 150q225 0 372.5 148.5t147.5 406.5q0 129 -40.5 234t-111 174t-165 106t-203.5 37q-110 0 -205 -37t-166 -106t-111.5 -174t-40.5 -234q0 -130 40.5 -236t111.5 -175t166 -106.5t205 -37.5z" />
    <glyph glyph-name="uni1EDB" unicode="&#x1edb;" horiz-adv-x="1180" 
d="M867 1411l-224 -259h-119l251 326zM1089 1118h109v-108q0 -123 -46 -178.5t-123 -55.5q-11 0 -17 1q73 -121 73 -285q0 -232 -139.5 -371.5t-355.5 -139.5q-140 0 -252 61t-177.5 178.5t-65.5 271.5q0 231 139.5 370.5t355.5 139.5q207 0 342 -126q36 -12 64 -12
q50 0 71.5 37t21.5 115v102zM589 125q140 0 232.5 101t92.5 266q0 164 -92.5 265t-232.5 101q-139 0 -230.5 -101t-91.5 -265q0 -165 91.5 -266t230.5 -101z" />
    <glyph glyph-name="uni1EDC" unicode="&#x1edc;" horiz-adv-x="1646" 
d="M885 1554h-119l-225 259l92 67zM1488 1478h109v-108q0 -123 -46 -178.5t-123 -55.5q-9 0 -27 2q122 -182 122 -433q0 -165 -54 -302.5t-148 -229t-222 -142t-275 -50.5q-149 0 -277 50.5t-222.5 142t-148 228.5t-53.5 303q0 165 54 301.5t148 228.5t222 142t277 50
q144 0 269 -47.5t219 -136.5q44 -19 83 -19q50 0 71.5 37t21.5 115v102zM824 150q225 0 372.5 148.5t147.5 406.5q0 129 -40.5 234t-111 174t-165 106t-203.5 37q-110 0 -205 -37t-166 -106t-111.5 -174t-40.5 -234q0 -130 40.5 -236t111.5 -175t166 -106.5t205 -37.5z" />
    <glyph glyph-name="uni1EDD" unicode="&#x1edd;" horiz-adv-x="1180" 
d="M651 1152h-119l-225 259l92 67zM1089 1118h109v-108q0 -123 -46 -178.5t-123 -55.5q-11 0 -17 1q73 -121 73 -285q0 -232 -139.5 -371.5t-355.5 -139.5q-140 0 -252 61t-177.5 178.5t-65.5 271.5q0 231 139.5 370.5t355.5 139.5q207 0 342 -126q36 -12 64 -12
q50 0 71.5 37t21.5 115v102zM589 125q140 0 232.5 101t92.5 266q0 164 -92.5 265t-232.5 101q-139 0 -230.5 -101t-91.5 -265q0 -165 91.5 -266t230.5 -101z" />
    <glyph glyph-name="uni1EDE" unicode="&#x1ede;" horiz-adv-x="1646" 
d="M813 1850q-44 0 -86 -31l-51 69q60 49 138 49q82 0 133.5 -47t51.5 -121q0 -116 -130 -157v-76h-88v119q119 24 119 110q0 37 -23 61t-64 24zM1488 1478h109v-108q0 -123 -46 -178.5t-123 -55.5q-9 0 -27 2q122 -182 122 -433q0 -165 -54 -302.5t-148 -229t-222 -142
t-275 -50.5q-149 0 -277 50.5t-222.5 142t-148 228.5t-53.5 303q0 165 54 301.5t148 228.5t222 142t277 50q144 0 269 -47.5t219 -136.5q44 -19 83 -19q50 0 71.5 37t21.5 115v102zM824 150q225 0 372.5 148.5t147.5 406.5q0 129 -40.5 234t-111 174t-165 106t-203.5 37
q-110 0 -205 -37t-166 -106t-111.5 -174t-40.5 -234q0 -130 40.5 -236t111.5 -175t166 -106.5t205 -37.5z" />
    <glyph glyph-name="uni1EDF" unicode="&#x1edf;" horiz-adv-x="1180" 
d="M579 1393q-45 0 -86 -32l-51 70q59 48 138 48q82 0 133.5 -47t51.5 -121q0 -117 -130 -156v-77h-88v119q119 26 119 110q0 37 -23 61.5t-64 24.5zM1089 1118h109v-108q0 -123 -46 -178.5t-123 -55.5q-11 0 -17 1q73 -121 73 -285q0 -232 -139.5 -371.5t-355.5 -139.5
q-140 0 -252 61t-177.5 178.5t-65.5 271.5q0 231 139.5 370.5t355.5 139.5q207 0 342 -126q36 -12 64 -12q50 0 71.5 37t21.5 115v102zM589 125q140 0 232.5 101t92.5 266q0 164 -92.5 265t-232.5 101q-139 0 -230.5 -101t-91.5 -265q0 -165 91.5 -266t230.5 -101z" />
    <glyph glyph-name="uni1EE0" unicode="&#x1ee0;" horiz-adv-x="1646" 
d="M693 1717q-51 0 -80 -42.5t-29 -111.5h-94q0 107 54.5 175t147.5 68q58 0 96 -25t70 -68q36 -47 56 -59q24 -16 52 -16q51 0 78.5 40.5t27.5 110.5h97q0 -106 -54.5 -173.5t-148.5 -67.5q-61 0 -99.5 26t-70.5 70q-17 24 -27.5 36.5t-31 24.5t-44.5 12zM1488 1478h109
v-108q0 -123 -46 -178.5t-123 -55.5q-9 0 -27 2q122 -182 122 -433q0 -165 -54 -302.5t-148 -229t-222 -142t-275 -50.5q-149 0 -277 50.5t-222.5 142t-148 228.5t-53.5 303q0 165 54 301.5t148 228.5t222 142t277 50q144 0 269 -47.5t219 -136.5q44 -19 83 -19
q50 0 71.5 37t21.5 115v102zM824 150q225 0 372.5 148.5t147.5 406.5q0 129 -40.5 234t-111 174t-165 106t-203.5 37q-110 0 -205 -37t-166 -106t-111.5 -174t-40.5 -234q0 -130 40.5 -236t111.5 -175t166 -106.5t205 -37.5z" />
    <glyph glyph-name="uni1EE1" unicode="&#x1ee1;" horiz-adv-x="1180" 
d="M475 1291q-41 0 -64.5 -37t-23.5 -97h-96q0 101 49 165t132 64q103 0 162 -98q30 -49 82 -49q41 0 64 35.5t23 96.5h97q0 -99 -49 -163.5t-132 -64.5q-103 0 -164 97q-34 51 -80 51zM1089 1118h109v-108q0 -123 -46 -178.5t-123 -55.5q-11 0 -17 1q73 -121 73 -285
q0 -232 -139.5 -371.5t-355.5 -139.5q-140 0 -252 61t-177.5 178.5t-65.5 271.5q0 231 139.5 370.5t355.5 139.5q207 0 342 -126q36 -12 64 -12q50 0 71.5 37t21.5 115v102zM589 125q140 0 232.5 101t92.5 266q0 164 -92.5 265t-232.5 101q-139 0 -230.5 -101t-91.5 -265
q0 -165 91.5 -266t230.5 -101z" />
    <glyph glyph-name="uni1EE2" unicode="&#x1ee2;" horiz-adv-x="1646" 
d="M1488 1478h109v-108q0 -123 -46 -178.5t-123 -55.5q-9 0 -27 2q122 -182 122 -433q0 -165 -54 -302.5t-148 -229t-222 -142t-275 -50.5q-149 0 -277 50.5t-222.5 142t-148 228.5t-53.5 303q0 165 54 301.5t148 228.5t222 142t277 50q144 0 269 -47.5t219 -136.5
q44 -19 83 -19q50 0 71.5 37t21.5 115v102zM824 150q225 0 372.5 148.5t147.5 406.5q0 129 -40.5 234t-111 174t-165 106t-203.5 37q-110 0 -205 -37t-166 -106t-111.5 -174t-40.5 -234q0 -130 40.5 -236t111.5 -175t166 -106.5t205 -37.5zM824 -279q47 0 81.5 -34.5
t34.5 -81.5q0 -49 -34 -83t-82 -34t-82.5 34t-34.5 83q0 47 34.5 81.5t82.5 34.5z" />
    <glyph glyph-name="uni1EE3" unicode="&#x1ee3;" horiz-adv-x="1180" 
d="M1089 1118h109v-108q0 -123 -46 -178.5t-123 -55.5q-11 0 -17 1q73 -121 73 -285q0 -232 -139.5 -371.5t-355.5 -139.5q-140 0 -252 61t-177.5 178.5t-65.5 271.5q0 231 139.5 370.5t355.5 139.5q207 0 342 -126q36 -12 64 -12q50 0 71.5 37t21.5 115v102zM589 125
q140 0 232.5 101t92.5 266q0 164 -92.5 265t-232.5 101q-139 0 -230.5 -101t-91.5 -265q0 -165 91.5 -266t230.5 -101zM590 -279q47 0 81.5 -34.5t34.5 -81.5q0 -49 -34 -83t-82 -34t-82.5 34t-34.5 83q0 47 34.5 81.5t82.5 34.5z" />
    <glyph glyph-name="uni1EE4" unicode="&#x1ee4;" horiz-adv-x="1409" 
d="M703 -19q-224 0 -367.5 130t-143.5 356v941h179v-916q0 -170 92.5 -259t239.5 -89t241 89.5t94 258.5v916h179v-941q0 -226 -144.5 -356t-369.5 -130zM703 -512q-48 0 -82.5 34t-34.5 83q0 47 34.5 81.5t82.5 34.5q47 0 81.5 -34.5t34.5 -81.5q0 -49 -34 -83t-82 -34z
" />
    <glyph glyph-name="uni1EE5" unicode="&#x1ee5;" horiz-adv-x="1137" 
d="M788 983h173v-983h-166l-4 130q-46 -72 -122 -110.5t-172 -38.5q-155 0 -247.5 89t-92.5 251v662h173v-623q0 -118 60.5 -176t154.5 -58q107 0 174.5 68t68.5 201v588zM571 -279q47 0 81.5 -34.5t34.5 -81.5q0 -49 -34 -83t-82 -34t-82.5 34t-34.5 83q0 47 34.5 81.5
t82.5 34.5z" />
    <glyph glyph-name="uni1EE6" unicode="&#x1ee6;" horiz-adv-x="1409" 
d="M660 1536v119q119 24 119 110q0 37 -23 61t-64 24q-44 0 -86 -31l-51 69q60 49 138 49q82 0 133.5 -47t51.5 -121q0 -116 -130 -157v-76h-88zM703 -19q-224 0 -367.5 130t-143.5 356v941h179v-916q0 -170 92.5 -259t239.5 -89t241 89.5t94 258.5v916h179v-941
q0 -226 -144.5 -356t-369.5 -130z" />
    <glyph glyph-name="uni1EE7" unicode="&#x1ee7;" horiz-adv-x="1137" 
d="M560 1394q-45 0 -86 -32l-51 70q59 48 138 48q82 0 133.5 -47t51.5 -121q0 -117 -130 -156v-77h-88v119q119 26 119 110q0 37 -23 61.5t-64 24.5zM788 983h173v-983h-166l-4 130q-46 -72 -122 -110.5t-172 -38.5q-155 0 -247.5 89t-92.5 251v662h173v-623
q0 -118 60.5 -176t154.5 -58q107 0 174.5 68t68.5 201v588z" />
    <glyph glyph-name="uni1EE8" unicode="&#x1ee8;" horiz-adv-x="1409" 
d="M980 1813l-224 -259h-119l251 326zM1379 1529h109v-108q0 -123 -46 -178.5t-123 -55.5q-47 0 -102 19v-739q0 -226 -144.5 -356t-369.5 -130q-224 0 -367.5 130t-143.5 356v941h179v-916q0 -170 92.5 -259t239.5 -89t241 89.5t94 258.5v916h179v-119q35 -14 69 -14
q50 0 71.5 37t21.5 115v102z" />
    <glyph glyph-name="uni1EE9" unicode="&#x1ee9;" horiz-adv-x="1137" 
d="M848 1412l-224 -259h-119l251 326zM1133 1104h109v-108q0 -123 -46 -178.5t-123 -55.5q-52 0 -112 23v-785h-166l-4 130q-46 -72 -122 -110.5t-172 -38.5q-155 0 -247.5 89t-92.5 251v662h173v-623q0 -118 60.5 -176t154.5 -58q107 0 174.5 68t68.5 201v588h173v-116
q45 -17 79 -17q50 0 71.5 37t21.5 115v102z" />
    <glyph glyph-name="uni1EEA" unicode="&#x1eea;" horiz-adv-x="1409" 
d="M764 1554h-119l-225 259l92 67zM1379 1529h109v-108q0 -123 -46 -178.5t-123 -55.5q-47 0 -102 19v-739q0 -226 -144.5 -356t-369.5 -130q-224 0 -367.5 130t-143.5 356v941h179v-916q0 -170 92.5 -259t239.5 -89t241 89.5t94 258.5v916h179v-119q35 -14 69 -14
q50 0 71.5 37t21.5 115v102z" />
    <glyph glyph-name="uni1EEB" unicode="&#x1eeb;" horiz-adv-x="1137" 
d="M632 1153h-119l-225 259l92 67zM1133 1104h109v-108q0 -123 -46 -178.5t-123 -55.5q-52 0 -112 23v-785h-166l-4 130q-46 -72 -122 -110.5t-172 -38.5q-155 0 -247.5 89t-92.5 251v662h173v-623q0 -118 60.5 -176t154.5 -58q107 0 174.5 68t68.5 201v588h173v-116
q45 -17 79 -17q50 0 71.5 37t21.5 115v102z" />
    <glyph glyph-name="uni1EEC" unicode="&#x1eec;" horiz-adv-x="1409" 
d="M692 1850q-44 0 -86 -31l-51 69q60 49 138 49q82 0 133.5 -47t51.5 -121q0 -116 -130 -157v-76h-88v119q119 24 119 110q0 37 -23 61t-64 24zM1379 1529h109v-108q0 -123 -46 -178.5t-123 -55.5q-47 0 -102 19v-739q0 -226 -144.5 -356t-369.5 -130q-224 0 -367.5 130
t-143.5 356v941h179v-916q0 -170 92.5 -259t239.5 -89t241 89.5t94 258.5v916h179v-119q35 -14 69 -14q50 0 71.5 37t21.5 115v102z" />
    <glyph glyph-name="uni1EED" unicode="&#x1eed;" horiz-adv-x="1137" 
d="M560 1394q-45 0 -86 -32l-51 70q59 48 138 48q82 0 133.5 -47t51.5 -121q0 -117 -130 -156v-77h-88v119q119 26 119 110q0 37 -23 61.5t-64 24.5zM1133 1104h109v-108q0 -123 -46 -178.5t-123 -55.5q-52 0 -112 23v-785h-166l-4 130q-46 -72 -122 -110.5t-172 -38.5
q-155 0 -247.5 89t-92.5 251v662h173v-623q0 -118 60.5 -176t154.5 -58q107 0 174.5 68t68.5 201v588h173v-116q45 -17 79 -17q50 0 71.5 37t21.5 115v102z" />
    <glyph glyph-name="uni1EEE" unicode="&#x1eee;" horiz-adv-x="1409" 
d="M572 1717q-51 0 -80 -42.5t-29 -111.5h-94q0 107 54.5 175t147.5 68q58 0 96 -25t70 -68q36 -47 56 -59q24 -16 52 -16q51 0 78.5 40.5t27.5 110.5h97q0 -106 -54.5 -173.5t-148.5 -67.5q-61 0 -99.5 26t-70.5 70q-17 24 -27.5 36.5t-31 24.5t-44.5 12zM1379 1529h109
v-108q0 -123 -46 -178.5t-123 -55.5q-47 0 -102 19v-739q0 -226 -144.5 -356t-369.5 -130q-224 0 -367.5 130t-143.5 356v941h179v-916q0 -170 92.5 -259t239.5 -89t241 89.5t94 258.5v916h179v-119q35 -14 69 -14q50 0 71.5 37t21.5 115v102z" />
    <glyph glyph-name="uni1EEF" unicode="&#x1eef;" horiz-adv-x="1137" 
d="M456 1292q-41 0 -64.5 -37t-23.5 -97h-96q0 101 49 165t132 64q103 0 162 -98q30 -49 82 -49q41 0 64 35.5t23 96.5h97q0 -99 -49 -163.5t-132 -64.5q-103 0 -164 97q-34 51 -80 51zM1133 1104h109v-108q0 -123 -46 -178.5t-123 -55.5q-52 0 -112 23v-785h-166l-4 130
q-46 -72 -122 -110.5t-172 -38.5q-155 0 -247.5 89t-92.5 251v662h173v-623q0 -118 60.5 -176t154.5 -58q107 0 174.5 68t68.5 201v588h173v-116q45 -17 79 -17q50 0 71.5 37t21.5 115v102z" />
    <glyph glyph-name="uni1EF0" unicode="&#x1ef0;" horiz-adv-x="1409" 
d="M1379 1529h109v-108q0 -123 -46 -178.5t-123 -55.5q-47 0 -102 19v-739q0 -226 -144.5 -356t-369.5 -130q-224 0 -367.5 130t-143.5 356v941h179v-916q0 -170 92.5 -259t239.5 -89t241 89.5t94 258.5v916h179v-119q35 -14 69 -14q50 0 71.5 37t21.5 115v102zM703 -279
q47 0 81.5 -34.5t34.5 -81.5q0 -49 -34 -83t-82 -34t-82.5 34t-34.5 83q0 47 34.5 81.5t82.5 34.5z" />
    <glyph glyph-name="uni1EF1" unicode="&#x1ef1;" horiz-adv-x="1137" 
d="M1133 1104h109v-108q0 -123 -46 -178.5t-123 -55.5q-52 0 -112 23v-785h-166l-4 130q-46 -72 -122 -110.5t-172 -38.5q-155 0 -247.5 89t-92.5 251v662h173v-623q0 -118 60.5 -176t154.5 -58q107 0 174.5 68t68.5 201v588h173v-116q45 -17 79 -17q50 0 71.5 37t21.5 115
v102zM571 -279q47 0 81.5 -34.5t34.5 -81.5q0 -49 -34 -83t-82 -34t-82.5 34t-34.5 83q0 47 34.5 81.5t82.5 34.5z" />
    <glyph glyph-name="Ygrave" unicode="&#x1ef2;" horiz-adv-x="1197" 
d="M660 1554h-119l-225 259l92 67zM1152 1408l-463 -737v-671h-180v670l-464 738h204l350 -576l350 576h203z" />
    <glyph glyph-name="ygrave" unicode="&#x1ef3;" horiz-adv-x="997" 
d="M561 1153h-119l-225 259l92 67zM782 983h183l-569 -1446h-179l197 487l-382 959h192l277 -765z" />
    <glyph glyph-name="uni1EF4" unicode="&#x1ef4;" horiz-adv-x="1197" 
d="M509 0v670l-464 738h204l350 -576l350 576h203l-463 -737v-671h-180zM600 -279q47 0 81.5 -34.5t34.5 -81.5q0 -49 -34 -83t-82 -34t-82.5 34t-34.5 83q0 47 34.5 81.5t82.5 34.5z" />
    <glyph glyph-name="uni1EF5" unicode="&#x1ef5;" horiz-adv-x="997" 
d="M782 983h183l-569 -1446h-179l197 487l-382 959h192l277 -765zM812 -279q47 0 81.5 -34.5t34.5 -81.5q0 -49 -34 -83t-82 -34t-82.5 34t-34.5 83q0 47 34.5 81.5t82.5 34.5z" />
    <glyph glyph-name="uni1EF6" unicode="&#x1ef6;" horiz-adv-x="1197" 
d="M588 1850q-44 0 -86 -31l-51 69q60 49 138 49q82 0 133.5 -47t51.5 -121q0 -116 -130 -157v-76h-88v119q119 24 119 110q0 37 -23 61t-64 24zM1152 1408l-463 -737v-671h-180v670l-464 738h204l350 -576l350 576h203z" />
    <glyph glyph-name="uni1EF7" unicode="&#x1ef7;" horiz-adv-x="997" 
d="M489 1394q-45 0 -86 -32l-51 70q59 48 138 48q82 0 133.5 -47t51.5 -121q0 -117 -130 -156v-77h-88v119q119 26 119 110q0 37 -23 61.5t-64 24.5zM782 983h183l-569 -1446h-179l197 487l-382 959h192l277 -765z" />
    <glyph glyph-name="uni1EF8" unicode="&#x1ef8;" horiz-adv-x="1197" 
d="M468 1717q-51 0 -80 -42.5t-29 -111.5h-94q0 107 54.5 175t147.5 68q58 0 96 -25t70 -68q36 -47 56 -59q24 -16 52 -16q51 0 78.5 40.5t27.5 110.5h97q0 -106 -54.5 -173.5t-148.5 -67.5q-61 0 -99.5 26t-70.5 70q-17 24 -27.5 36.5t-31 24.5t-44.5 12zM1152 1408
l-463 -737v-671h-180v670l-464 738h204l350 -576l350 576h203z" />
    <glyph glyph-name="uni1EF9" unicode="&#x1ef9;" horiz-adv-x="997" 
d="M385 1292q-41 0 -64.5 -37t-23.5 -97h-96q0 101 49 165t132 64q103 0 162 -98q30 -49 82 -49q41 0 64 35.5t23 96.5h97q0 -99 -49 -163.5t-132 -64.5q-103 0 -164 97q-34 51 -80 51zM782 983h183l-569 -1446h-179l197 487l-382 959h192l277 -765z" />
    <glyph glyph-name="endash" unicode="&#x2013;" horiz-adv-x="1367" 
d="M171 461v143h1024v-143h-1024z" />
    <glyph glyph-name="emdash" unicode="&#x2014;" horiz-adv-x="2391" 
d="M171 461v143h2048v-143h-2048z" />
    <glyph glyph-name="quoteleft" unicode="&#x2018;" horiz-adv-x="579" 
d="M302 1408h126l-122 -620h-181z" />
    <glyph glyph-name="quoteright" unicode="&#x2019;" horiz-adv-x="578" 
d="M276 787h-126l122 620h181z" />
    <glyph glyph-name="quotesinglbase" unicode="&#x201a;" horiz-adv-x="578" 
d="M276 -361h-126l122 620h181z" />
    <glyph glyph-name="quotedblleft" unicode="&#x201c;" horiz-adv-x="957" 
d="M302 1408h126l-122 -620h-181zM680 1408h126l-122 -620h-181z" />
    <glyph glyph-name="quotedblright" unicode="&#x201d;" horiz-adv-x="956" 
d="M276 787h-126l122 620h181zM654 787h-126l122 620h181z" />
    <glyph glyph-name="quotedblbase" unicode="&#x201e;" horiz-adv-x="967" 
d="M276 -361h-126l122 620h181zM664 -361h-126l122 620h181z" />
    <glyph glyph-name="dagger" unicode="&#x2020;" horiz-adv-x="1020" 
d="M922 1005v-116h-359v-1202h-118v1202h-348v116h348v403h118v-403h359z" />
    <glyph glyph-name="daggerdbl" unicode="&#x2021;" horiz-adv-x="1090" 
d="M957 889h-359v-674h359v-116h-359v-412h-118v412h-348v116h348v674h-348v116h348v403h118v-403h359v-116z" />
    <glyph glyph-name="bullet" unicode="&#x2022;" horiz-adv-x="883" 
d="M442 412q-104 0 -179 73t-75 180q0 101 76 177t178 76q101 0 177 -76t76 -177q0 -106 -75.5 -179.5t-177.5 -73.5z" />
    <glyph glyph-name="ellipsis" unicode="&#x2026;" horiz-adv-x="1880" 
d="M328 -20q-47 0 -81.5 34t-34.5 82q0 47 34.5 81.5t81.5 34.5t82 -34.5t35 -81.5q0 -48 -34.5 -82t-82.5 -34zM944 -20q-47 0 -81.5 34t-34.5 82q0 47 34.5 81.5t81.5 34.5t82 -34.5t35 -81.5q0 -48 -34.5 -82t-82.5 -34zM1549 -20q-47 0 -81.5 34t-34.5 82
q0 47 34.5 81.5t81.5 34.5t82 -34.5t35 -81.5q0 -48 -34.5 -82t-82.5 -34z" />
    <glyph glyph-name="perthousand" unicode="&#x2030;" horiz-adv-x="2208" 
d="M410 847q-119 0 -203.5 85t-84.5 206q0 119 84.5 204.5t203.5 85.5q120 0 204 -85.5t84 -204.5q0 -120 -84 -205.5t-204 -85.5zM307 -1l750 1411h158l-750 -1411h-158zM410 973q70 0 117.5 48.5t47.5 116.5q0 69 -48 116.5t-117 47.5q-68 0 -116.5 -47.5t-48.5 -116.5
t48.5 -117t116.5 -48zM1124 -18q-121 0 -205.5 85t-84.5 205t85 204.5t205 84.5q118 0 202 -85t84 -204q0 -120 -83.5 -205t-202.5 -85zM1803 -18q-121 0 -206 85t-85 205t85.5 204.5t205.5 84.5q118 0 202 -85t84 -204t-84 -204.5t-202 -85.5zM1124 107q68 0 117 49t49 116
q0 69 -49 117t-117 48q-70 0 -118 -47.5t-48 -117.5q0 -68 48.5 -116.5t117.5 -48.5zM1803 107q67 0 116 49t49 116q0 68 -49 116.5t-116 48.5q-70 0 -118 -47.5t-48 -117.5q0 -68 48 -116.5t118 -48.5z" />
    <glyph glyph-name="guilsinglleft" unicode="&#x2039;" horiz-adv-x="614" 
d="M384 229l-312 377l312 377h147l-311 -377l311 -377h-147z" />
    <glyph glyph-name="guilsinglright" unicode="&#x203a;" horiz-adv-x="614" 
d="M83 229l311 377l-311 377h148l311 -377l-311 -377h-148z" />
    <glyph glyph-name="fraction" unicode="&#x2044;" horiz-adv-x="407" 
d="M-257 0l794 1408h127l-794 -1408h-127z" />
    <glyph glyph-name="Euro" unicode="&#x20ac;" horiz-adv-x="1566" 
d="M932 149q106 0 196.5 50.5t153.5 141.5l148 -104q-89 -119 -219.5 -187.5t-277.5 -68.5q-155 0 -281.5 56t-216 174t-123.5 288h-158v110h143q-4 41 -4 98q0 46 3 88h-142v112h157q48 255 215.5 388t406.5 133q147 0 277 -68t220 -187l-148 -104q-62 91 -153 140t-197 49
q-167 0 -284 -86t-159 -265h500v-112h-517q-4 -37 -4 -88q0 -36 4 -98h517v-110h-498q43 -178 160 -264t281 -86z" />
    <glyph glyph-name="uni2113" unicode="&#x2113;" horiz-adv-x="1152" 
d="M638 -11q-164 0 -252.5 93.5t-104.5 237.5v18q-21 -13 -62 -43.5t-58 -42.5l-51 97q21 17 80 60.5t88 68.5v501q0 102 19 183t50.5 133.5t75 87t91 49t100.5 14.5q136 0 206 -90.5t70 -227.5q0 -168 -113 -335t-329 -356l1 -51q1 -125 67 -191.5t159 -66.5
q91 0 169.5 58.5t124.5 138.5l82 -78q-147 -258 -413 -258zM448 598q149 147 232.5 276.5t83.5 249.5q0 200 -148 200q-30 0 -58 -16t-53.5 -51t-41 -101t-15.5 -154v-404z" />
    <glyph glyph-name="uni2116" unicode="&#x2116;" horiz-adv-x="2933" 
d="M1284 294v1242h175v-1536h-168l-852 1245v-1245h-175v1536h168zM2254 325q-109 0 -203.5 40t-163.5 111t-108.5 174.5t-39.5 225.5q0 245 146.5 397t368.5 152q223 0 369 -152.5t146 -396.5q0 -163 -67.5 -289t-184.5 -194t-263 -68zM2253 1274q-148 0 -245.5 -108.5
t-97.5 -289.5q0 -183 97 -292t246 -109t247.5 109.5t98.5 291.5q0 181 -98.5 289.5t-247.5 108.5zM1793 0v120h924v-120h-924z" />
    <glyph glyph-name="trademark" unicode="&#x2122;" horiz-adv-x="1602" 
d="M134 1450v86h442v-86h-175v-635h-92v635h-175zM1240 1536h98v-721h-93v562l-239 -395l-240 393v-560h-94v721h101l232 -388z" />
    <glyph glyph-name="estimated" unicode="&#x212e;" horiz-adv-x="2015" 
d="M1023 -18q-178 0 -340 62t-279 167.5t-186 250.5t-69 304q0 215 117 397t318 287.5t439 105.5q179 0 341.5 -62.5t280 -168t186.5 -252t69 -307.5v-21h-1417q-13 0 -13 -8v-430q0 -22 19 -49q106 -109 245 -171t291 -62q167 0 313.5 69.5t252.5 192.5h125
q-119 -141 -301.5 -223t-391.5 -82zM483 788h1087q8 0 8 15v430q0 34 -20 51q-106 105 -243.5 165t-289.5 60q-150 0 -288 -61.5t-246 -169.5q-21 -24 -21 -53v-422q0 -5 3.5 -10t9.5 -5z" />
    <glyph glyph-name="partialdiff" unicode="&#x2202;" horiz-adv-x="1195" 
d="M380 1445q177 27 326.5 -68t234.5 -283t82 -422q-2 -188 -67 -338.5t-178 -235.5t-253 -85q-116 0 -203 46.5t-132 128t-49.5 192t44.5 238.5q87 232 271.5 322t379.5 3q-48 193 -168.5 294.5t-287.5 76.5v131zM863 672q1 64 -3 126q-110 66 -210.5 63t-184.5 -77.5
t-131 -207.5q-46 -133 -33 -231.5t75 -155t156 -56.5q131 0 228 150.5t103 388.5z" />
    <glyph glyph-name="emptyset" unicode="&#x2205;" horiz-adv-x="1575" 
d="M788 -16q-233 0 -405 154l-89 -89l-53 53l89 89q-154 172 -154 405q0 166 82 307t223 223t307 82q232 0 405 -154l88 89l54 -53l-89 -89q154 -172 154 -405q0 -166 -82 -307t-223 -223t-307 -82zM429 291l664 664q-130 111 -305 111q-128 0 -236.5 -62.5t-171 -171
t-62.5 -236.5q0 -178 111 -305zM788 126q128 0 236.5 62.5t171 171t62.5 236.5q0 175 -111 305l-665 -664q128 -111 306 -111z" />
    <glyph glyph-name="product" unicode="&#x220f;" horiz-adv-x="1652" 
d="M283 0v1253h-125v155h1337v-155h-126v-1253h-153v1253h-777v-1253h-156z" />
    <glyph glyph-name="summation" unicode="&#x2211;" horiz-adv-x="1415" 
d="M124 1v118l638 648l-638 650v119h1162v-144h-919l602 -625l-602 -622h919v-144h-1162z" />
    <glyph glyph-name="minus" unicode="&#x2212;" horiz-adv-x="1284" 
d="M260 611v142h764v-142h-764z" />
    <glyph glyph-name="radical" unicode="&#x221a;" horiz-adv-x="1424" 
d="M475 0l-230 710h-140v145h242l204 -619l622 1300h159l-735 -1536h-122z" />
    <glyph glyph-name="infinity" unicode="&#x221e;" horiz-adv-x="1725" 
d="M486 294q-120 0 -201 85.5t-86 216.5q5 131 86 216.5t201 85.5q179 0 375 -210q93 101 190 155.5t185 54.5q124 0 203 -83.5t84 -218.5q-5 -135 -84 -218.5t-203 -83.5q-88 0 -185 54t-190 155q-197 -209 -375 -209zM486 418q62 0 138.5 46.5t153.5 131.5
q-77 85 -153.5 131.5t-138.5 46.5q-66 0 -114 -51.5t-50 -126.5q2 -75 50 -126.5t114 -51.5zM1236 418q67 0 114 50.5t49 127.5q-2 77 -49 127.5t-114 50.5q-129 0 -294 -178q164 -178 294 -178z" />
    <glyph glyph-name="integral" unicode="&#x222b;" horiz-adv-x="960" 
d="M91 -457v168q163 0 234 70t71 227v1119q0 131 82 216t205 85q117 0 194 -70l-78 -130q-46 43 -103 43q-60 0 -96 -44.5t-36 -122.5v-1099q0 -219 -127 -340.5t-346 -121.5z" />
    <glyph glyph-name="approxequal" unicode="&#x2248;" horiz-adv-x="1434" 
d="M936 669q-47 0 -88 12.5t-75.5 38t-54 44.5t-47.5 49q-6 7 -9 10q-79 86 -147 86q-76 0 -122 -61t-48 -158h-134q2 159 85.5 256t219.5 97q77 0 135.5 -37t121.5 -113q26 -30 42 -46.5t46.5 -32t63.5 -15.5q72 0 118.5 59.5t49.5 157.5h132q-2 -151 -81 -249t-208 -98z
M936 237q-40 0 -78 11.5t-62.5 23.5t-55 39t-41.5 38.5t-37 40.5q-39 45 -71 66.5t-76 20.5q-77 -1 -122.5 -62t-47.5 -157h-134q2 160 85.5 257t219.5 97q77 0 135 -36t122 -113q26 -31 42.5 -47.5t46.5 -32.5t63 -16q73 0 119 59.5t49 159.5h132q-2 -152 -81 -250.5
t-208 -98.5z" />
    <glyph glyph-name="notequal" unicode="&#x2260;" horiz-adv-x="1259" 
d="M196 0l217 415h-233v142h306l139 267h-445v142h518l204 390h132l-203 -390h257v-142h-331l-139 -267h470v-142h-542l-217 -415h-133z" />
    <glyph glyph-name="lessequal" unicode="&#x2264;" horiz-adv-x="1439" 
d="M1276 1422v-157l-977 -453l977 -455v-160l-1131 530v169zM145 0v126h1131v-126h-1131z" />
    <glyph glyph-name="greaterequal" unicode="&#x2265;" horiz-adv-x="1439" 
d="M164 1422l1130 -526v-169l-1130 -530v160l976 455l-976 453v157zM164 0v126h1130v-126h-1130z" />
    <glyph glyph-name="lozenge" unicode="&#x25ca;" horiz-adv-x="1425" 
d="M713 106l-618 617l618 618l617 -616zM715 301l420 424l-420 420l-424 -422z" />
    <glyph glyph-name="uniF8FF" unicode="&#xf8ff;" horiz-adv-x="1861" 
d="M931 0q-158 0 -302 62t-248.5 166t-166.5 248t-62 302t62 302.5t166.5 248.5t248.5 165.5t302 61.5t302.5 -61.5t248.5 -165.5t165.5 -248.5t61.5 -302.5t-61.5 -302t-165.5 -248t-248.5 -166t-302.5 -62zM931 74q143 0 273.5 56t225 150.5t150 224.5t55.5 273
t-55.5 273.5t-150 225t-225 150.5t-273.5 56q-190 0 -352.5 -94.5t-257.5 -257t-95 -353.5q0 -190 95 -352.5t257.5 -257t352.5 -94.5zM1338 444q-12 0 -23 13l-297 295q-12 12 -12 27.5t11 25.5l297 297q10 10 25 10t26 -10q11 -11 11 -26.5t-11 -26.5l-270 -271l270 -270
q22 -22 0 -51q-10 -13 -27 -13zM523 444q-15 0 -26 11t-11 26v594q0 16 11 26.5t26 10.5q16 0 26.5 -10.5t10.5 -26.5v-594q0 -15 -10.5 -26t-26.5 -11zM931 444q-16 0 -26.5 11t-10.5 26v594q0 16 10.5 26.5t26.5 10.5q15 0 26 -10.5t11 -26.5v-594q0 -15 -11 -26t-26 -11z
M634 741q-16 0 -26.5 11t-10.5 26q0 16 10.5 26.5t26.5 10.5h186q16 0 26.5 -10.5t10.5 -26.5q0 -15 -10.5 -26t-26.5 -11h-186z" />
    <glyph glyph-name="G.ss02" horiz-adv-x="1589" 
d="M827 -19q-202 0 -360.5 84.5t-251 249t-92.5 385.5q0 222 93 389t251 252.5t357 85.5q194 0 351 -84t247 -244l-158 -85q-67 123 -182 185.5t-258 62.5q-110 0 -205 -37t-165.5 -106.5t-110.5 -176t-40 -237.5q0 -261 147.5 -411t376.5 -150q201 0 336.5 119.5
t141.5 302.5h-477v152h653q4 -81 -5 -162q-28 -269 -203.5 -422t-445.5 -153z" />
    <glyph glyph-name="Gbreve.ss02" horiz-adv-x="1589" 
d="M813 1554q-155 0 -246.5 67t-91.5 203h107q0 -91 62.5 -135.5t168.5 -44.5q108 0 171 44.5t63 135.5h107q0 -137 -92 -203.5t-249 -66.5zM827 -19q-202 0 -360.5 84.5t-251 249t-92.5 385.5q0 222 93 389t251 252.5t357 85.5q194 0 351 -84t247 -244l-158 -85
q-67 123 -182 185.5t-258 62.5q-110 0 -205 -37t-165.5 -106.5t-110.5 -176t-40 -237.5q0 -261 147.5 -411t376.5 -150q201 0 336.5 119.5t141.5 302.5h-477v152h653q4 -81 -5 -162q-28 -269 -203.5 -422t-445.5 -153z" />
    <glyph glyph-name="Gcommaaccent.ss02" horiz-adv-x="1589" 
d="M827 -19q-202 0 -360.5 84.5t-251 249t-92.5 385.5q0 222 93 389t251 252.5t357 85.5q194 0 351 -84t247 -244l-158 -85q-67 123 -182 185.5t-258 62.5q-110 0 -205 -37t-165.5 -106.5t-110.5 -176t-40 -237.5q0 -261 147.5 -411t376.5 -150q201 0 336.5 119.5
t141.5 302.5h-477v152h653q4 -81 -5 -162q-28 -269 -203.5 -422t-445.5 -153zM666 -559l-92 41l160 366h158z" />
    <glyph glyph-name="Gdotaccent.ss02" horiz-adv-x="1589" 
d="M815 1536q-48 0 -82.5 34.5t-34.5 82.5t34.5 82t82.5 34q47 0 81.5 -34t34.5 -82t-34.5 -82.5t-81.5 -34.5zM827 -19q-202 0 -360.5 84.5t-251 249t-92.5 385.5q0 222 93 389t251 252.5t357 85.5q194 0 351 -84t247 -244l-158 -85q-67 123 -182 185.5t-258 62.5
q-110 0 -205 -37t-165.5 -106.5t-110.5 -176t-40 -237.5q0 -261 147.5 -411t376.5 -150q201 0 336.5 119.5t141.5 302.5h-477v152h653q4 -81 -5 -162q-28 -269 -203.5 -422t-445.5 -153z" />
    <glyph glyph-name="G.ss03" horiz-adv-x="1589" 
d="M827 -19q-202 0 -360.5 84.5t-251 249t-92.5 385.5q0 222 93 389t251 252.5t357 85.5q194 0 351 -84t247 -244l-158 -85q-67 123 -182 185.5t-258 62.5q-110 0 -205 -37t-165.5 -106.5t-110.5 -176t-40 -237.5q0 -261 147.5 -411t376.5 -150q201 0 336.5 119.5
t141.5 302.5h-477v152h653q4 -81 -5 -162q-28 -269 -203.5 -422t-445.5 -153z" />
    <glyph glyph-name="Gbreve.ss03" horiz-adv-x="1589" 
d="M813 1554q-155 0 -246.5 67t-91.5 203h107q0 -91 62.5 -135.5t168.5 -44.5q108 0 171 44.5t63 135.5h107q0 -137 -92 -203.5t-249 -66.5zM827 -19q-202 0 -360.5 84.5t-251 249t-92.5 385.5q0 222 93 389t251 252.5t357 85.5q194 0 351 -84t247 -244l-158 -85
q-67 123 -182 185.5t-258 62.5q-110 0 -205 -37t-165.5 -106.5t-110.5 -176t-40 -237.5q0 -261 147.5 -411t376.5 -150q201 0 336.5 119.5t141.5 302.5h-477v152h653q4 -81 -5 -162q-28 -269 -203.5 -422t-445.5 -153z" />
    <glyph glyph-name="Gcommaaccent.ss03" horiz-adv-x="1589" 
d="M827 -19q-202 0 -360.5 84.5t-251 249t-92.5 385.5q0 222 93 389t251 252.5t357 85.5q194 0 351 -84t247 -244l-158 -85q-67 123 -182 185.5t-258 62.5q-110 0 -205 -37t-165.5 -106.5t-110.5 -176t-40 -237.5q0 -261 147.5 -411t376.5 -150q201 0 336.5 119.5
t141.5 302.5h-477v152h653q4 -81 -5 -162q-28 -269 -203.5 -422t-445.5 -153zM666 -559l-92 41l160 366h158z" />
    <glyph glyph-name="Gdotaccent.ss03" horiz-adv-x="1589" 
d="M815 1536q-48 0 -82.5 34.5t-34.5 82.5t34.5 82t82.5 34q47 0 81.5 -34t34.5 -82t-34.5 -82.5t-81.5 -34.5zM827 -19q-202 0 -360.5 84.5t-251 249t-92.5 385.5q0 222 93 389t251 252.5t357 85.5q194 0 351 -84t247 -244l-158 -85q-67 123 -182 185.5t-258 62.5
q-110 0 -205 -37t-165.5 -106.5t-110.5 -176t-40 -237.5q0 -261 147.5 -411t376.5 -150q201 0 336.5 119.5t141.5 302.5h-477v152h653q4 -81 -5 -162q-28 -269 -203.5 -422t-445.5 -153z" />
    <glyph glyph-name="i.loclTRK" horiz-adv-x="526" 
d="M264 1214q-48 0 -82.5 34.5t-34.5 82.5t34.5 82t82.5 34q47 0 81.5 -34t34.5 -82t-34.5 -82.5t-81.5 -34.5zM176 0v983h174v-983h-174z" />
    <glyph glyph-name="g.ss01" horiz-adv-x="1087" 
d="M1020 983v-130h-155q71 -93 71 -216q0 -158 -111.5 -248.5t-284.5 -90.5q-126 0 -224 50q-37 -40 -37 -83q0 -25 9.5 -44t32 -33t43.5 -23t62 -17t68.5 -12t79.5 -11q15 -2 23 -3q66 -9 110 -16.5t98 -21.5t88 -33t65.5 -47t46 -68.5t14.5 -91.5q0 -150 -124 -233
t-326 -83q-199 0 -319 76t-120 193q0 124 125 246q-133 60 -133 187q0 113 97 190q-87 93 -87 227q0 159 114.5 257.5t283.5 98.5q73 0 141 -20h349zM535 428q109 0 172 60t63 160q0 101 -63.5 162.5t-169.5 61.5q-108 0 -173 -62t-65 -163q0 -99 64 -159t172 -60zM853 -179
q0 35 -14.5 60t-40.5 41t-65.5 26.5t-84.5 18t-102 14.5q-17 2 -26 3q-87 10 -154 25q-79 -97 -79 -180q0 -82 78.5 -128.5t216.5 -46.5q120 0 195.5 40.5t75.5 126.5z" />
    <glyph glyph-name="gbreve.ss01" horiz-adv-x="1087" 
d="M542 1143q-149 0 -243.5 86t-94.5 231h113q0 -99 62.5 -162.5t162.5 -63.5q102 0 165 63t63 163h113q0 -145 -95 -231t-246 -86zM1020 983v-130h-155q71 -93 71 -216q0 -158 -111.5 -248.5t-284.5 -90.5q-126 0 -224 50q-37 -40 -37 -83q0 -25 9.5 -44t32 -33t43.5 -23
t62 -17t68.5 -12t79.5 -11q15 -2 23 -3q66 -9 110 -16.5t98 -21.5t88 -33t65.5 -47t46 -68.5t14.5 -91.5q0 -150 -124 -233t-326 -83q-199 0 -319 76t-120 193q0 124 125 246q-133 60 -133 187q0 113 97 190q-87 93 -87 227q0 159 114.5 257.5t283.5 98.5q73 0 141 -20h349z
M535 428q109 0 172 60t63 160q0 101 -63.5 162.5t-169.5 61.5q-108 0 -173 -62t-65 -163q0 -99 64 -159t172 -60zM853 -179q0 35 -14.5 60t-40.5 41t-65.5 26.5t-84.5 18t-102 14.5q-17 2 -26 3q-87 10 -154 25q-79 -97 -79 -180q0 -82 78.5 -128.5t216.5 -46.5
q120 0 195.5 40.5t75.5 126.5z" />
    <glyph glyph-name="gcommaaccent.ss01" horiz-adv-x="1087" 
d="M699 1453l-122 -306h-181l177 306h126zM1020 983v-130h-155q71 -93 71 -216q0 -158 -111.5 -248.5t-284.5 -90.5q-126 0 -224 50q-37 -40 -37 -83q0 -25 9.5 -44t32 -33t43.5 -23t62 -17t68.5 -12t79.5 -11q15 -2 23 -3q66 -9 110 -16.5t98 -21.5t88 -33t65.5 -47
t46 -68.5t14.5 -91.5q0 -150 -124 -233t-326 -83q-199 0 -319 76t-120 193q0 124 125 246q-133 60 -133 187q0 113 97 190q-87 93 -87 227q0 159 114.5 257.5t283.5 98.5q73 0 141 -20h349zM535 428q109 0 172 60t63 160q0 101 -63.5 162.5t-169.5 61.5q-108 0 -173 -62
t-65 -163q0 -99 64 -159t172 -60zM853 -179q0 35 -14.5 60t-40.5 41t-65.5 26.5t-84.5 18t-102 14.5q-17 2 -26 3q-87 10 -154 25q-79 -97 -79 -180q0 -82 78.5 -128.5t216.5 -46.5q120 0 195.5 40.5t75.5 126.5z" />
    <glyph glyph-name="gdotaccent.ss01" horiz-adv-x="1087" 
d="M544 1214q-48 0 -82.5 34.5t-34.5 82.5t34.5 82t82.5 34q47 0 81.5 -34t34.5 -82t-34.5 -82.5t-81.5 -34.5zM1020 983v-130h-155q71 -93 71 -216q0 -158 -111.5 -248.5t-284.5 -90.5q-126 0 -224 50q-37 -40 -37 -83q0 -25 9.5 -44t32 -33t43.5 -23t62 -17t68.5 -12
t79.5 -11q15 -2 23 -3q66 -9 110 -16.5t98 -21.5t88 -33t65.5 -47t46 -68.5t14.5 -91.5q0 -150 -124 -233t-326 -83q-199 0 -319 76t-120 193q0 124 125 246q-133 60 -133 187q0 113 97 190q-87 93 -87 227q0 159 114.5 257.5t283.5 98.5q73 0 141 -20h349zM535 428
q109 0 172 60t63 160q0 101 -63.5 162.5t-169.5 61.5q-108 0 -173 -62t-65 -163q0 -99 64 -159t172 -60zM853 -179q0 35 -14.5 60t-40.5 41t-65.5 26.5t-84.5 18t-102 14.5q-17 2 -26 3q-87 10 -154 25q-79 -97 -79 -180q0 -82 78.5 -128.5t216.5 -46.5q120 0 195.5 40.5
t75.5 126.5z" />
    <glyph glyph-name="a.ss02" horiz-adv-x="1251" 
d="M908 983h167v-983h-167l-4 191q-47 -98 -140 -155t-208 -57q-94 0 -178 36.5t-146.5 102t-99 162.5t-36.5 211q0 227 133.5 369t326.5 142q117 0 212 -59t140 -160v200zM592 129q136 0 228.5 103.5t92.5 258.5q0 154 -93 258t-228 104q-137 0 -230 -100.5t-93 -261.5
t93 -261.5t230 -100.5z" />
    <glyph glyph-name="aacute.ss02" horiz-adv-x="1251" 
d="M903 1412l-224 -259h-119l251 326zM908 983h167v-983h-167l-4 191q-47 -98 -140 -155t-208 -57q-94 0 -178 36.5t-146.5 102t-99 162.5t-36.5 211q0 227 133.5 369t326.5 142q117 0 212 -59t140 -160v200zM592 129q136 0 228.5 103.5t92.5 258.5q0 154 -93 258t-228 104
q-137 0 -230 -100.5t-93 -261.5t93 -261.5t230 -100.5z" />
    <glyph glyph-name="abreve.ss02" horiz-adv-x="1251" 
d="M624 1143q-149 0 -243.5 86t-94.5 231h113q0 -99 62.5 -162.5t162.5 -63.5q102 0 165 63t63 163h113q0 -145 -95 -231t-246 -86zM908 983h167v-983h-167l-4 191q-47 -98 -140 -155t-208 -57q-94 0 -178 36.5t-146.5 102t-99 162.5t-36.5 211q0 227 133.5 369t326.5 142
q117 0 212 -59t140 -160v200zM592 129q136 0 228.5 103.5t92.5 258.5q0 154 -93 258t-228 104q-137 0 -230 -100.5t-93 -261.5t93 -261.5t230 -100.5z" />
    <glyph glyph-name="uni1EAF.ss02" horiz-adv-x="1251" 
d="M903 1889l-224 -259h-119l251 326zM624 1143q-149 0 -243.5 86t-94.5 231h113q0 -99 62.5 -162.5t162.5 -63.5q102 0 165 63t63 163h113q0 -145 -95 -231t-246 -86zM908 983h167v-983h-167l-4 191q-47 -98 -140 -155t-208 -57q-94 0 -178 36.5t-146.5 102t-99 162.5
t-36.5 211q0 227 133.5 369t326.5 142q117 0 212 -59t140 -160v200zM592 129q136 0 228.5 103.5t92.5 258.5q0 154 -93 258t-228 104q-137 0 -230 -100.5t-93 -261.5t93 -261.5t230 -100.5z" />
    <glyph glyph-name="uni1EB7.ss02" horiz-adv-x="1251" 
d="M624 1143q-149 0 -243.5 86t-94.5 231h113q0 -99 62.5 -162.5t162.5 -63.5q102 0 165 63t63 163h113q0 -145 -95 -231t-246 -86zM908 983h167v-983h-167l-4 191q-47 -98 -140 -155t-208 -57q-94 0 -178 36.5t-146.5 102t-99 162.5t-36.5 211q0 227 133.5 369t326.5 142
q117 0 212 -59t140 -160v200zM592 129q136 0 228.5 103.5t92.5 258.5q0 154 -93 258t-228 104q-137 0 -230 -100.5t-93 -261.5t93 -261.5t230 -100.5zM626 -279q47 0 81.5 -34.5t34.5 -81.5q0 -49 -34 -83t-82 -34t-82.5 34t-34.5 83q0 47 34.5 81.5t82.5 34.5z" />
    <glyph glyph-name="uni1EB1.ss02" horiz-adv-x="1251" 
d="M687 1630h-119l-225 259l92 67zM624 1143q-149 0 -243.5 86t-94.5 231h113q0 -99 62.5 -162.5t162.5 -63.5q102 0 165 63t63 163h113q0 -145 -95 -231t-246 -86zM908 983h167v-983h-167l-4 191q-47 -98 -140 -155t-208 -57q-94 0 -178 36.5t-146.5 102t-99 162.5
t-36.5 211q0 227 133.5 369t326.5 142q117 0 212 -59t140 -160v200zM592 129q136 0 228.5 103.5t92.5 258.5q0 154 -93 258t-228 104q-137 0 -230 -100.5t-93 -261.5t93 -261.5t230 -100.5z" />
    <glyph glyph-name="uni1EB3.ss02" horiz-adv-x="1251" 
d="M615 1871q-45 0 -86 -32l-51 70q59 48 138 48q82 0 133.5 -47t51.5 -121q0 -117 -130 -156v-77h-88v119q119 26 119 110q0 37 -23 61.5t-64 24.5zM624 1143q-149 0 -243.5 86t-94.5 231h113q0 -99 62.5 -162.5t162.5 -63.5q102 0 165 63t63 163h113q0 -145 -95 -231
t-246 -86zM908 983h167v-983h-167l-4 191q-47 -98 -140 -155t-208 -57q-94 0 -178 36.5t-146.5 102t-99 162.5t-36.5 211q0 227 133.5 369t326.5 142q117 0 212 -59t140 -160v200zM592 129q136 0 228.5 103.5t92.5 258.5q0 154 -93 258t-228 104q-137 0 -230 -100.5
t-93 -261.5t93 -261.5t230 -100.5z" />
    <glyph glyph-name="uni1EB5.ss02" horiz-adv-x="1251" 
d="M511 1769q-41 0 -64.5 -37t-23.5 -97h-96q0 101 49 165t132 64q103 0 162 -98q30 -49 82 -49q41 0 64 35.5t23 96.5h97q0 -99 -49 -163.5t-132 -64.5q-103 0 -164 97q-34 51 -80 51zM624 1143q-149 0 -243.5 86t-94.5 231h113q0 -99 62.5 -162.5t162.5 -63.5
q102 0 165 63t63 163h113q0 -145 -95 -231t-246 -86zM908 983h167v-983h-167l-4 191q-47 -98 -140 -155t-208 -57q-94 0 -178 36.5t-146.5 102t-99 162.5t-36.5 211q0 227 133.5 369t326.5 142q117 0 212 -59t140 -160v200zM592 129q136 0 228.5 103.5t92.5 258.5
q0 154 -93 258t-228 104q-137 0 -230 -100.5t-93 -261.5t93 -261.5t230 -100.5z" />
    <glyph glyph-name="uni01CE.ss02" horiz-adv-x="1251" 
d="M689 1165h-127l-211 295h117l157 -214l156 214h119zM908 983h167v-983h-167l-4 191q-47 -98 -140 -155t-208 -57q-94 0 -178 36.5t-146.5 102t-99 162.5t-36.5 211q0 227 133.5 369t326.5 142q117 0 212 -59t140 -160v200zM592 129q136 0 228.5 103.5t92.5 258.5
q0 154 -93 258t-228 104q-137 0 -230 -100.5t-93 -261.5t93 -261.5t230 -100.5z" />
    <glyph glyph-name="acircumflex.ss02" horiz-adv-x="1251" 
d="M624 1377l-156 -212h-118l211 295h128l211 -295h-119zM908 983h167v-983h-167l-4 191q-47 -98 -140 -155t-208 -57q-94 0 -178 36.5t-146.5 102t-99 162.5t-36.5 211q0 227 133.5 369t326.5 142q117 0 212 -59t140 -160v200zM592 129q136 0 228.5 103.5t92.5 258.5
q0 154 -93 258t-228 104q-137 0 -230 -100.5t-93 -261.5t93 -261.5t230 -100.5z" />
    <glyph glyph-name="uni1EA5.ss02" horiz-adv-x="1251" 
d="M901 1889l-224 -259h-119l251 326zM624 1377l-156 -212h-118l211 295h128l211 -295h-119zM908 983h167v-983h-167l-4 191q-47 -98 -140 -155t-208 -57q-94 0 -178 36.5t-146.5 102t-99 162.5t-36.5 211q0 227 133.5 369t326.5 142q117 0 212 -59t140 -160v200zM592 129
q136 0 228.5 103.5t92.5 258.5q0 154 -93 258t-228 104q-137 0 -230 -100.5t-93 -261.5t93 -261.5t230 -100.5z" />
    <glyph glyph-name="uni1EAD.ss02" horiz-adv-x="1251" 
d="M624 1377l-156 -212h-118l211 295h128l211 -295h-119zM908 983h167v-983h-167l-4 191q-47 -98 -140 -155t-208 -57q-94 0 -178 36.5t-146.5 102t-99 162.5t-36.5 211q0 227 133.5 369t326.5 142q117 0 212 -59t140 -160v200zM592 129q136 0 228.5 103.5t92.5 258.5
q0 154 -93 258t-228 104q-137 0 -230 -100.5t-93 -261.5t93 -261.5t230 -100.5zM626 -279q47 0 81.5 -34.5t34.5 -81.5q0 -49 -34 -83t-82 -34t-82.5 34t-34.5 83q0 47 34.5 81.5t82.5 34.5z" />
    <glyph glyph-name="uni1EA7.ss02" horiz-adv-x="1251" 
d="M685 1630h-119l-225 259l92 67zM350 1165l211 295h128l211 -295h-119l-157 212l-156 -212h-118zM908 983h167v-983h-167l-4 191q-47 -98 -140 -155t-208 -57q-94 0 -178 36.5t-146.5 102t-99 162.5t-36.5 211q0 227 133.5 369t326.5 142q117 0 212 -59t140 -160v200z
M592 129q136 0 228.5 103.5t92.5 258.5q0 154 -93 258t-228 104q-137 0 -230 -100.5t-93 -261.5t93 -261.5t230 -100.5z" />
    <glyph glyph-name="uni1EA9.ss02" horiz-adv-x="1251" 
d="M613 1871q-45 0 -86 -32l-51 70q59 48 138 48q82 0 133.5 -47t51.5 -121q0 -117 -130 -156v-77h-88v119q119 26 119 110q0 37 -23 61.5t-64 24.5zM624 1377l-156 -212h-118l211 295h128l211 -295h-119zM908 983h167v-983h-167l-4 191q-47 -98 -140 -155t-208 -57
q-94 0 -178 36.5t-146.5 102t-99 162.5t-36.5 211q0 227 133.5 369t326.5 142q117 0 212 -59t140 -160v200zM592 129q136 0 228.5 103.5t92.5 258.5q0 154 -93 258t-228 104q-137 0 -230 -100.5t-93 -261.5t93 -261.5t230 -100.5z" />
    <glyph glyph-name="uni1EAB.ss02" horiz-adv-x="1251" 
d="M509 1769q-41 0 -64.5 -37t-23.5 -97h-96q0 101 49 165t132 64q103 0 162 -98q30 -49 82 -49q41 0 64 35.5t23 96.5h97q0 -99 -49 -163.5t-132 -64.5q-103 0 -164 97q-34 51 -80 51zM561 1460h128l211 -295h-119l-157 212l-156 -212h-118zM908 983h167v-983h-167l-4 191
q-47 -98 -140 -155t-208 -57q-94 0 -178 36.5t-146.5 102t-99 162.5t-36.5 211q0 227 133.5 369t326.5 142q117 0 212 -59t140 -160v200zM592 129q136 0 228.5 103.5t92.5 258.5q0 154 -93 258t-228 104q-137 0 -230 -100.5t-93 -261.5t93 -261.5t230 -100.5z" />
    <glyph glyph-name="adieresis.ss02" horiz-adv-x="1251" 
d="M439 1214q-48 0 -82.5 34.5t-34.5 82.5t34.5 82t82.5 34q47 0 81.5 -34t34.5 -82t-34.5 -82.5t-81.5 -34.5zM813 1214q-48 0 -82.5 34.5t-34.5 82.5t34.5 82t82.5 34q47 0 81.5 -34t34.5 -82t-34.5 -82.5t-81.5 -34.5zM908 983h167v-983h-167l-4 191q-47 -98 -140 -155
t-208 -57q-94 0 -178 36.5t-146.5 102t-99 162.5t-36.5 211q0 227 133.5 369t326.5 142q117 0 212 -59t140 -160v200zM592 129q136 0 228.5 103.5t92.5 258.5q0 154 -93 258t-228 104q-137 0 -230 -100.5t-93 -261.5t93 -261.5t230 -100.5z" />
    <glyph glyph-name="uni1EA1.ss02" horiz-adv-x="1251" 
d="M908 983h167v-983h-167l-4 191q-47 -98 -140 -155t-208 -57q-94 0 -178 36.5t-146.5 102t-99 162.5t-36.5 211q0 227 133.5 369t326.5 142q117 0 212 -59t140 -160v200zM592 129q136 0 228.5 103.5t92.5 258.5q0 154 -93 258t-228 104q-137 0 -230 -100.5t-93 -261.5
t93 -261.5t230 -100.5zM626 -279q47 0 81.5 -34.5t34.5 -81.5q0 -49 -34 -83t-82 -34t-82.5 34t-34.5 83q0 47 34.5 81.5t82.5 34.5z" />
    <glyph glyph-name="agrave.ss02" horiz-adv-x="1251" 
d="M687 1153h-119l-225 259l92 67zM908 983h167v-983h-167l-4 191q-47 -98 -140 -155t-208 -57q-94 0 -178 36.5t-146.5 102t-99 162.5t-36.5 211q0 227 133.5 369t326.5 142q117 0 212 -59t140 -160v200zM592 129q136 0 228.5 103.5t92.5 258.5q0 154 -93 258t-228 104
q-137 0 -230 -100.5t-93 -261.5t93 -261.5t230 -100.5z" />
    <glyph glyph-name="uni1EA3.ss02" horiz-adv-x="1251" 
d="M615 1394q-45 0 -86 -32l-51 70q59 48 138 48q82 0 133.5 -47t51.5 -121q0 -117 -130 -156v-77h-88v119q119 26 119 110q0 37 -23 61.5t-64 24.5zM908 983h167v-983h-167l-4 191q-47 -98 -140 -155t-208 -57q-94 0 -178 36.5t-146.5 102t-99 162.5t-36.5 211
q0 227 133.5 369t326.5 142q117 0 212 -59t140 -160v200zM592 129q136 0 228.5 103.5t92.5 258.5q0 154 -93 258t-228 104q-137 0 -230 -100.5t-93 -261.5t93 -261.5t230 -100.5z" />
    <glyph glyph-name="amacron.ss02" horiz-adv-x="1251" 
d="M949 1289v-111h-647v111h647zM908 983h167v-983h-167l-4 191q-47 -98 -140 -155t-208 -57q-94 0 -178 36.5t-146.5 102t-99 162.5t-36.5 211q0 227 133.5 369t326.5 142q117 0 212 -59t140 -160v200zM592 129q136 0 228.5 103.5t92.5 258.5q0 154 -93 258t-228 104
q-137 0 -230 -100.5t-93 -261.5t93 -261.5t230 -100.5z" />
    <glyph glyph-name="aogonek.ss02" horiz-adv-x="1251" 
d="M1075 983v-983q-5 -5 -24.5 -25t-31 -32t-31 -33.5t-31.5 -37.5t-25 -35t-19 -35.5t-6 -29.5q0 -43 75 -43q52 0 93 30v-127q-47 -18 -108 -18q-86 0 -130.5 24.5t-44.5 69.5q0 94 194 292h-78l-4 191q-47 -98 -140 -155t-208 -57q-94 0 -178 36.5t-146.5 102t-99 162.5
t-36.5 211q0 227 133.5 369t326.5 142q117 0 212 -59t140 -160v200h167zM592 129q136 0 228.5 103.5t92.5 258.5q0 154 -93 258t-228 104q-137 0 -230 -100.5t-93 -261.5t93 -261.5t230 -100.5z" />
    <glyph glyph-name="aring.ss02" horiz-adv-x="1251" 
d="M626 1116q-87 0 -149 62.5t-62 148.5q0 87 61.5 148t149.5 61q86 0 147 -61t61 -148q0 -86 -61.5 -148.5t-146.5 -62.5zM626 1455q-52 0 -88.5 -38t-36.5 -90q0 -54 36 -89.5t89 -35.5t89 35.5t36 89.5q0 52 -36.5 90t-88.5 38zM908 983h167v-983h-167l-4 191
q-47 -98 -140 -155t-208 -57q-94 0 -178 36.5t-146.5 102t-99 162.5t-36.5 211q0 227 133.5 369t326.5 142q117 0 212 -59t140 -160v200zM592 129q136 0 228.5 103.5t92.5 258.5q0 154 -93 258t-228 104q-137 0 -230 -100.5t-93 -261.5t93 -261.5t230 -100.5z" />
    <glyph glyph-name="atilde.ss02" horiz-adv-x="1251" 
d="M511 1292q-41 0 -64.5 -37t-23.5 -97h-96q0 101 49 165t132 64q103 0 162 -98q30 -49 82 -49q41 0 64 35.5t23 96.5h97q0 -99 -49 -163.5t-132 -64.5q-103 0 -164 97q-34 51 -80 51zM908 983h167v-983h-167l-4 191q-47 -98 -140 -155t-208 -57q-94 0 -178 36.5
t-146.5 102t-99 162.5t-36.5 211q0 227 133.5 369t326.5 142q117 0 212 -59t140 -160v200zM592 129q136 0 228.5 103.5t92.5 258.5q0 154 -93 258t-228 104q-137 0 -230 -100.5t-93 -261.5t93 -261.5t230 -100.5z" />
    <glyph glyph-name="f_t" horiz-adv-x="1263" 
d="M227 0v845h-190v138h190v206q0 64 10.5 114.5t28 86.5t46.5 62.5t60.5 42.5t74.5 25t84.5 12.5t95.5 3.5v-145h-37.5t-36 -2t-36 -5t-31 -10t-29.5 -17t-23 -25.5t-19.5 -36t-11 -48t-4.5 -61.5v-203h271q145 0 145 139v189h148v-328h226v-138h-226v-560
q0 -70 37.5 -108.5t98.5 -38.5h89v-138h-136q-122 0 -192 70.5t-70 196.5v578h-391v-845h-172z" />
    <glyph glyph-name="t_t" horiz-adv-x="1298" 
d="M490 0q-122 0 -192 70.5t-70 196.5v578h-201v138h80q133 0 133 127v145h162v-272h302q65 0 99 32.5t34 94.5v145h161v-272h226v-138h-226v-560q0 -70 38 -108.5t99 -38.5h88v-138h-136q-122 0 -192 70.5t-70 196.5v578h-423v-560q0 -70 37.5 -108.5t98.5 -38.5h88v-138
h-136z" />
    <glyph glyph-name="zero.subs" horiz-adv-x="808" 
d="M403 -381q-145 0 -238.5 133.5t-93.5 339.5t93.5 339.5t238.5 133.5q147 0 241 -133t94 -340q0 -206 -94 -339.5t-241 -133.5zM404 -267q92 0 154 101.5t62 257.5t-62 257.5t-154 101.5t-154 -101.5t-62 -257.5t62 -257.5t154 -101.5z" />
    <glyph glyph-name="one.subs" horiz-adv-x="481" 
d="M231 553h109v-922h-116v804l-218 -170v118z" />
    <glyph glyph-name="two.subs" horiz-adv-x="718" 
d="M162 -273h501v-96h-626v110q208 171 313.5 273.5t138.5 159t33 113.5q0 89 -48 134t-120 44q-79 -1 -124 -51t-47 -128h-120q1 124 85 202.5t212 78.5q119 0 195.5 -72t79.5 -192q4 -121 -97 -243.5t-376 -332.5z" />
    <glyph glyph-name="three.subs" horiz-adv-x="699" 
d="M478 142q71 -34 112.5 -96t41.5 -142q0 -118 -86 -201.5t-211 -83.5q-122 0 -207 77.5t-85 192.5h115q1 -73 53.5 -120.5t126.5 -47.5q77 0 127.5 51.5t50.5 130.5q0 77 -51 127t-130 50h-68v94h61q65 0 106.5 41.5t41.5 106.5q0 64 -40.5 103.5t-103.5 39.5
q-61 0 -101.5 -39t-41.5 -105l-113 1q0 106 73.5 174.5t181.5 68.5q107 0 178.5 -67.5t71.5 -169.5q0 -123 -103 -186z" />
    <glyph glyph-name="four.subs" horiz-adv-x="723" 
d="M664 -81v-93h-102v-195h-112v195h-437v91l400 636h149v-634h102zM122 -81h328v534z" />
    <glyph glyph-name="five.subs" horiz-adv-x="764" 
d="M369 226q167 0 248 -79.5t81 -217.5q0 -137 -89.5 -223t-227.5 -86q-122 0 -211 64t-103 185h119q14 -74 68 -110.5t123 -36.5q92 0 147.5 57t55.5 146q0 96 -55.5 149.5t-171.5 53.5h-259l83 426h482v-103h-397l-43 -225h150z" />
    <glyph glyph-name="six.subs" horiz-adv-x="719" 
d="M682 -50q5 -138 -88.5 -231t-226.5 -98t-232 81.5t-103 221.5q-4 121 78 219l320 410h140l-258 -314q24 7 60 9q120 2 212.5 -85t97.5 -213zM367 -271q88 5 147.5 68.5t54.5 151.5q-5 90 -69.5 147t-151.5 53q-91 -5 -149 -68t-54 -154q4 -89 69 -145.5t153 -52.5z" />
    <glyph glyph-name="seven.subs" horiz-adv-x="640" 
d="M25 553h618v-79l-471 -843h-135l463 814h-475v108z" />
    <glyph glyph-name="eight.subs" horiz-adv-x="735" 
d="M517 141q69 -35 109 -99t40 -143q0 -117 -86 -198.5t-212 -81.5q-127 0 -214 81.5t-87 198.5q0 79 40.5 143t110.5 100q-97 62 -97 191q0 98 70.5 165t176.5 67q105 0 175.5 -67t70.5 -165q0 -129 -97 -192zM368 467q-62 0 -103.5 -41.5t-41.5 -103.5q0 -61 42 -102.5
t103 -41.5q60 0 101.5 41.5t41.5 102.5q0 62 -41.5 103.5t-101.5 41.5zM368 -278q77 0 130 55t53 134q0 77 -53.5 130t-129.5 53q-78 0 -131.5 -53t-53.5 -130q0 -80 53 -134.5t132 -54.5z" />
    <glyph glyph-name="nine.subs" horiz-adv-x="719" 
d="M687 260q4 -115 -76 -219l-321 -410h-141l260 316q-28 -10 -64 -10q-118 -2 -211 85t-99 213q-5 136 89.5 229.5t227.5 98.5t232 -81.5t103 -221.5zM372 36q89 5 147.5 67.5t54.5 153.5q-4 90 -68.5 146.5t-152.5 51.5q-89 -5 -149 -68.5t-54 -151.5q5 -91 70 -147.5
t152 -51.5z" />
    <glyph glyph-name="zero.dnom" horiz-adv-x="808" 
d="M403 -12q-145 0 -238.5 133.5t-93.5 339.5t93.5 339.5t238.5 133.5q147 0 241 -133.5t94 -339.5q0 -207 -94 -340t-241 -133zM404 102q92 0 154 101.5t62 257.5t-62 257.5t-154 101.5t-154 -101.5t-62 -257.5t62 -257.5t154 -101.5z" />
    <glyph glyph-name="one.dnom" horiz-adv-x="481" 
d="M231 922h109v-922h-116v804l-218 -170v118z" />
    <glyph glyph-name="two.dnom" horiz-adv-x="718" 
d="M160 95h503v-95h-626v110q208 171 313.5 273.5t138.5 159t33 113.5q0 89 -48 134t-120 44q-79 -2 -124 -51.5t-47 -127.5h-120q1 124 85 202.5t212 78.5q118 0 195 -72.5t80 -191.5q4 -122 -97 -244t-378 -333z" />
    <glyph glyph-name="three.dnom" horiz-adv-x="699" 
d="M478 511q71 -35 112.5 -97t41.5 -141q0 -118 -86 -201.5t-211 -83.5q-122 0 -207 77.5t-85 192.5h115q1 -73 53.5 -120.5t126.5 -47.5q77 0 127.5 51t50.5 130q0 78 -50.5 127t-130.5 49h-68v96h61q65 0 106.5 41.5t41.5 106.5q0 64 -40.5 103.5t-103.5 39.5
q-60 0 -101 -39.5t-42 -104.5l-113 1q0 105 73.5 174t181.5 69q107 0 178.5 -68t71.5 -170q0 -122 -103 -185z" />
    <glyph glyph-name="four.dnom" horiz-adv-x="723" 
d="M664 288v-93h-102v-195h-112v195h-437v90l400 637h149v-634h102zM122 288h328v534z" />
    <glyph glyph-name="five.dnom" horiz-adv-x="764" 
d="M369 594q167 0 248 -79.5t81 -217.5q0 -136 -89.5 -222t-227.5 -86q-122 0 -211 64t-103 185h119q14 -74 68 -111t123 -37q92 0 147.5 57.5t55.5 146.5q0 96 -55.5 149.5t-171.5 53.5h-259l83 425h482v-102h-397l-44 -226h151z" />
    <glyph glyph-name="six.dnom" horiz-adv-x="719" 
d="M682 318q5 -137 -88.5 -230t-226.5 -98q-134 -5 -232.5 81.5t-102.5 221.5q-4 121 78 219l320 410h140l-259 -314q27 8 61 8q120 2 212.5 -84.5t97.5 -213.5zM367 98q88 5 147.5 68.5t54.5 151.5q-5 90 -69.5 147t-151.5 52q-91 -5 -149 -67.5t-54 -153.5
q4 -90 69 -146.5t153 -51.5z" />
    <glyph glyph-name="seven.dnom" horiz-adv-x="640" 
d="M25 922h618v-79l-471 -843h-135l463 814h-475v108z" />
    <glyph glyph-name="eight.dnom" horiz-adv-x="735" 
d="M517 510q69 -35 109 -99t40 -144q0 -117 -86 -198t-212 -81q-127 0 -214 81t-87 198q0 80 40.5 144t110.5 100q-97 62 -97 190q0 99 70.5 166t176.5 67q105 0 175.5 -67t70.5 -166q0 -128 -97 -191zM368 836q-61 0 -103 -42t-42 -103t41.5 -102.5t103.5 -41.5
q60 0 101.5 41.5t41.5 102.5t-41.5 103t-101.5 42zM368 90q77 0 130 55.5t53 134.5q0 76 -53.5 129.5t-129.5 53.5q-78 0 -131.5 -53t-53.5 -130q0 -80 53.5 -135t131.5 -55z" />
    <glyph glyph-name="nine.dnom" horiz-adv-x="719" 
d="M687 629q4 -115 -76 -219l-321 -410h-141l258 314q-26 -8 -62 -9q-118 -2 -211 85.5t-99 212.5q-5 136 89.5 230t227.5 99q86 3 161.5 -34.5t123 -108.5t50.5 -160zM372 404q89 5 147.5 68t54.5 154q-4 90 -68.5 146t-152.5 52q-89 -5 -149 -68.5t-54 -151.5
q5 -91 70.5 -148t151.5 -52z" />
    <glyph glyph-name="zero.numr" horiz-adv-x="808" 
d="M403 482q-145 0 -238.5 133.5t-93.5 339.5t93.5 339.5t238.5 133.5q147 0 241 -133.5t94 -339.5t-94 -339.5t-241 -133.5zM404 596q92 0 154 101.5t62 257.5t-62 256.5t-154 100.5q-93 0 -154.5 -100.5t-61.5 -256.5q0 -157 61.5 -258t154.5 -101z" />
    <glyph glyph-name="one.numr" horiz-adv-x="481" 
d="M232 1408h108v-922h-116l1 804l-219 -169v117z" />
    <glyph glyph-name="two.numr" horiz-adv-x="718" 
d="M160 587h503v-95h-626v110q208 171 313.5 273.5t138.5 159t33 113.5q0 89 -48 134t-120 44q-79 -1 -124 -51t-47 -128h-120q1 124 85 202.5t212 78.5q118 0 195 -72.5t80 -191.5q4 -122 -97 -244t-378 -333z" />
    <glyph glyph-name="three.numr" horiz-adv-x="699" 
d="M477 1004q72 -34 113.5 -95.5t41.5 -141.5q0 -120 -85.5 -202.5t-210.5 -82.5q-123 0 -208 77.5t-85 192.5h119q0 -73 50.5 -120.5t124.5 -47.5q76 0 126 51t50 131q0 78 -51.5 126.5t-134.5 48.5h-60v96h55q67 0 108.5 41.5t41.5 107.5q0 63 -40 102.5t-100 39.5
q-61 0 -100 -39t-39 -105l-117 1q0 106 73 174.5t183 68.5q106 0 177.5 -68t71.5 -170q0 -60 -27.5 -108t-76.5 -78z" />
    <glyph glyph-name="four.numr" horiz-adv-x="723" 
d="M664 774v-93h-102v-195h-112v195h-437v90l400 637h149v-634h102zM122 774h328v534z" />
    <glyph glyph-name="five.numr" horiz-adv-x="764" 
d="M369 1080q167 0 248 -79.5t81 -217.5q0 -137 -89.5 -223t-227.5 -86q-122 0 -211 64t-103 185h119q14 -74 68 -110.5t123 -36.5q92 0 147.5 57t55.5 146q0 96 -56 149.5t-171 53.5h-259l83 426h482v-103h-397l-43 -225h150z" />
    <glyph glyph-name="six.numr" horiz-adv-x="719" 
d="M682 804q5 -137 -88.5 -230t-226.5 -98q-134 -5 -232.5 81.5t-102.5 221.5q-4 121 78 219l320 410h140l-258 -315q29 9 60 9q120 4 212.5 -83.5t97.5 -214.5zM367 584q88 5 147.5 68.5t54.5 151.5q-5 90 -69.5 147t-151.5 52q-91 -5 -149 -67.5t-54 -153.5
q4 -90 69 -146.5t153 -51.5z" />
    <glyph glyph-name="seven.numr" horiz-adv-x="640" 
d="M25 1408h618v-79l-471 -843h-135l463 814h-475v108z" />
    <glyph glyph-name="eight.numr" horiz-adv-x="735" 
d="M517 1004q69 -35 109 -99t40 -143q0 -117 -86 -198.5t-212 -81.5q-127 0 -214 81.5t-87 198.5q0 79 40.5 143t110.5 100q-97 62 -97 190q0 99 70.5 166t176.5 67q104 0 175 -67.5t71 -165.5q0 -128 -97 -191zM368 1330q-62 0 -103.5 -42t-41.5 -103t42 -102.5t103 -41.5
q60 0 101.5 41.5t41.5 102.5t-41.5 103t-101.5 42zM368 585q77 0 130 55t53 134q0 76 -53.5 129.5t-129.5 53.5q-78 0 -131.5 -53t-53.5 -130q0 -80 53 -134.5t132 -54.5z" />
    <glyph glyph-name="nine.numr" horiz-adv-x="719" 
d="M362 1428q134 0 229.5 -88.5t95.5 -224.5q0 -113 -76 -209l-321 -410h-141l260 315q-27 -9 -70 -9q-119 0 -211.5 90.5t-92.5 218.5q0 136 97.5 226.5t229.5 90.5zM362 901q89 0 150.5 60.5t61.5 149.5q0 91 -61.5 150t-148.5 59q-89 0 -151.5 -60t-62.5 -147
q0 -92 62 -152t150 -60z" />
    <glyph glyph-name="zero.sups" horiz-adv-x="808" 
d="M403 977q-145 0 -238.5 133.5t-93.5 339.5t93.5 339.5t238.5 133.5q147 0 241 -133.5t94 -339.5q0 -207 -94 -340t-241 -133zM404 1091q92 0 154 101.5t62 257.5t-62 256.5t-154 100.5q-93 0 -154.5 -100.5t-61.5 -256.5q0 -157 61.5 -258t154.5 -101z" />
    <glyph glyph-name="one.sups" horiz-adv-x="481" 
d="M232 1905h108v-922h-116l1 805l-219 -169v116z" />
    <glyph glyph-name="two.sups" horiz-adv-x="718" 
d="M160 1078h503v-95h-626v110q208 171 313.5 273.5t138.5 159t33 113.5q0 89 -48 134t-120 44q-79 -1 -124 -51t-47 -128h-120q1 124 85 202.5t212 78.5q118 0 195 -72.5t80 -191.5q4 -122 -97 -244t-378 -333z" />
    <glyph glyph-name="three.sups" horiz-adv-x="699" 
d="M477 1493q72 -34 113.5 -95.5t41.5 -141.5q0 -120 -85.5 -202.5t-210.5 -82.5q-123 0 -208 77.5t-85 192.5h119q0 -73 50.5 -120.5t124.5 -47.5q76 0 126 51t50 131q0 78 -51.5 126.5t-134.5 48.5h-60v96h55q67 0 108.5 41.5t41.5 107.5q0 63 -40 102.5t-100 39.5
t-99.5 -39.5t-39.5 -104.5l-117 1q0 105 73.5 174t182.5 69q106 0 177.5 -68t71.5 -170q0 -60 -27.5 -108t-76.5 -78z" />
    <glyph glyph-name="four.sups" horiz-adv-x="723" 
d="M664 1271v-93h-102v-195h-112v195h-437v90l400 637h149v-634h102zM122 1271h328v534z" />
    <glyph glyph-name="five.sups" horiz-adv-x="764" 
d="M369 1577q167 0 248 -79.5t81 -217.5q0 -136 -89.5 -222t-227.5 -86q-122 0 -211 64t-103 185h119q14 -74 68 -111t123 -37q92 0 147.5 57.5t55.5 146.5q0 95 -56 149t-171 54h-259l83 425h482v-102h-397l-44 -226h151z" />
    <glyph glyph-name="six.sups" horiz-adv-x="719" 
d="M682 1301q5 -137 -88.5 -230t-226.5 -98q-134 -5 -232.5 81.5t-102.5 221.5q-4 121 78 219l320 410h140l-258 -315q29 9 60 9q120 2 212.5 -84.5t97.5 -213.5zM367 1081q88 5 147.5 68.5t54.5 151.5q-5 90 -69.5 147t-151.5 52q-91 -5 -149 -67.5t-54 -153.5
q4 -90 69 -146.5t153 -51.5z" />
    <glyph glyph-name="seven.sups" horiz-adv-x="640" 
d="M25 1905h618v-79l-471 -843h-135l463 814h-475v108z" />
    <glyph glyph-name="eight.sups" horiz-adv-x="735" 
d="M517 1493q69 -35 109 -99t40 -144q0 -117 -86 -198t-212 -81q-127 0 -214 81t-87 198q0 80 40.5 144t110.5 100q-97 62 -97 190q0 99 70.5 166t176.5 67q104 0 175 -67.5t71 -165.5q0 -128 -97 -191zM368 1819q-61 0 -103 -42t-42 -103t41.5 -102.5t103.5 -41.5
q60 0 101.5 41.5t41.5 102.5t-41.5 103t-101.5 42zM368 1073q77 0 130 55.5t53 134.5q0 77 -53.5 130t-129.5 53q-78 0 -131.5 -53t-53.5 -130q0 -80 53.5 -135t131.5 -55z" />
    <glyph glyph-name="nine.sups" horiz-adv-x="719" 
d="M687 1612q4 -115 -76 -219l-321 -410h-141l260 315q-24 -8 -64 -10q-118 -2 -211 85.5t-99 212.5q-5 136 89.5 230t227.5 99q86 3 161.5 -34.5t123 -108.5t50.5 -160zM372 1387q89 5 147.5 68t54.5 154q-4 90 -68.5 146t-152.5 52q-89 -5 -149 -68.5t-54 -151.5
q5 -90 70 -147t152 -53z" />
    <glyph glyph-name="uni0308.case" 
d="M-634 1536q-48 0 -82.5 34.5t-34.5 82.5t34.5 82t82.5 34q47 0 81.5 -34t34.5 -82t-34.5 -82.5t-81.5 -34.5zM-260 1536q-48 0 -82.5 34.5t-34.5 82.5t34.5 82t82.5 34q47 0 81.5 -34t34.5 -82t-34.5 -82.5t-81.5 -34.5z" />
    <glyph glyph-name="uni0307.case" 
d="M-260 1536q-48 0 -82.5 34.5t-34.5 82.5t34.5 82t82.5 34q47 0 81.5 -34t34.5 -82t-34.5 -82.5t-81.5 -34.5z" />
    <glyph glyph-name="gravecomb.case" 
d="M-179 1554l-225 259l92 67l252 -326h-119z" />
    <glyph glyph-name="acutecomb.case" 
d="M-421 1554l251 326l92 -67l-224 -259h-119z" />
    <glyph glyph-name="uni030B.case" 
d="M-781 1554l251 326l92 -67l-224 -259h-119zM-422 1554l252 326l92 -67l-224 -259h-120z" />
    <glyph glyph-name="uni0302.case" 
d="M-505 1554h-118l211 295h128l211 -295h-119l-157 212z" />
    <glyph glyph-name="uni030C.case" 
d="M-415 1554l-211 295h117l157 -214l156 214h119l-211 -295h-127z" />
    <glyph glyph-name="uni0306.case" 
d="M-461 1554q-155 0 -246.5 67t-91.5 203h107q0 -91 62.5 -135.5t168.5 -44.5q108 0 171 44.5t63 135.5h107q0 -137 -92 -203.5t-249 -66.5z" />
    <glyph glyph-name="uni030A.case" 
d="M-335 1554q-87 0 -149 62t-62 148q0 87 61.5 148t149.5 61q86 0 147 -61t61 -148q0 -86 -61.5 -148t-146.5 -62zM-335 1639q53 0 89 35.5t36 89.5q0 53 -36.5 90.5t-88.5 37.5t-88.5 -37.5t-36.5 -90.5q0 -54 36 -89.5t89 -35.5z" />
    <glyph glyph-name="tildecomb.case" 
d="M-337 1548q-61 0 -99.5 26t-70.5 70q-17 24 -27.5 36.5t-31 24.5t-44.5 12q-51 0 -80 -42.5t-29 -111.5h-94q0 107 54.5 175t147.5 68q58 0 96 -25t70 -68q36 -47 56 -59q23 -16 52 -16q51 0 78.5 40.5t27.5 110.5h97q0 -106 -54.5 -173.5t-148.5 -67.5z" />
    <glyph glyph-name="uni0304.case" 
d="M-819 1554v110h647v-110h-647z" />
    <glyph glyph-name="hookabovecomb.case" 
d="M-339 1536v119q119 24 119 110q0 37 -23 61t-64 24q-44 0 -86 -31l-51 69q60 49 138 49q82 0 133.5 -47t51.5 -121q0 -116 -130 -157v-76h-88z" />
    <glyph glyph-name="uni0312.case" 
d="M-242 1860h126l-122 -306h-181z" />
    <glyph glyph-name="uni0338.case" 
d="M-1192 1l1102 1584l90 -57l-1101 -1580z" />
    <glyph glyph-name="uni03060301" 
d="M-517 1706l251 326l92 -67l-224 -259h-119zM-453 1219q-149 0 -243.5 86t-94.5 231h113q0 -99 62.5 -162.5t162.5 -63.5q101 0 164.5 63t63.5 163h113q0 -145 -95 -231t-246 -86z" />
    <glyph glyph-name="uni03060300" 
d="M-509 1706l-225 259l92 67l252 -326h-119zM-453 1219q-149 0 -243.5 86t-94.5 231h113q0 -99 62.5 -162.5t162.5 -63.5q101 0 164.5 63t63.5 163h113q0 -145 -95 -231t-246 -86z" />
    <glyph glyph-name="uni03060309" 
d="M-494 1632v119q119 26 119 110q0 37 -23 61.5t-64 24.5q-45 0 -86 -32l-51 70q59 48 138 48q82 0 133.5 -47t51.5 -121q0 -117 -130 -156v-77h-88zM-453 1219q-149 0 -243.5 86t-94.5 231h113q0 -99 62.5 -162.5t162.5 -63.5q101 0 164.5 63t63.5 163h113
q0 -145 -95 -231t-246 -86z" />
    <glyph glyph-name="uni03060303" 
d="M-322 1697q-103 0 -164 97q-34 51 -80 51q-41 0 -64.5 -37t-23.5 -97h-96q0 101 49 165t132 64q103 0 162 -98q30 -49 82 -49q41 0 64 35.5t23 96.5h97q0 -99 -49 -163.5t-132 -64.5zM-453 1219q-149 0 -243.5 86t-94.5 231h113q0 -99 62.5 -162.5t162.5 -63.5
q101 0 164.5 63t63.5 163h113q0 -145 -95 -231t-246 -86z" />
    <glyph glyph-name="uni03020301" 
d="M-415 1706l251 326l92 -67l-224 -259h-119zM-505 1241h-118l211 295h128l211 -295h-119l-157 212z" />
    <glyph glyph-name="uni03020300" 
d="M-407 1706l-225 259l92 67l252 -326h-119zM-505 1241h-118l211 295h128l211 -295h-119l-157 212z" />
    <glyph glyph-name="uni03020309" 
d="M-392 1632v119q119 26 119 110q0 37 -23 61.5t-64 24.5q-45 0 -86 -32l-51 70q59 48 138 48q82 0 133.5 -47t51.5 -121q0 -117 -130 -156v-77h-88zM-505 1241h-118l211 295h128l211 -295h-119l-157 212z" />
    <glyph glyph-name="uni03020303" 
d="M-220 1697q-103 0 -164 97q-34 51 -80 51q-41 0 -64.5 -37t-23.5 -97h-96q0 101 49 165t132 64q103 0 162 -98q30 -49 82 -49q41 0 64 35.5t23 96.5h97q0 -99 -49 -163.5t-132 -64.5zM-505 1241h-118l211 295h128l211 -295h-119l-157 212z" />
    <glyph glyph-name="uni03060301.case" 
d="M-524 1896l251 326l92 -67l-224 -259h-119zM-461 1554q-155 0 -246.5 67t-91.5 203h107q0 -91 62.5 -135.5t168.5 -44.5q108 0 171 44.5t63 135.5h107q0 -137 -92 -203.5t-249 -66.5z" />
    <glyph glyph-name="uni03060300.case" 
d="M-516 1896l-225 259l92 67l252 -326h-119zM-461 1554q-155 0 -246.5 67t-91.5 203h107q0 -91 62.5 -135.5t168.5 -44.5q108 0 171 44.5t63 135.5h107q0 -137 -92 -203.5t-249 -66.5z" />
    <glyph glyph-name="uni03060309.case" 
d="M-501 1878v119q119 24 119 110q0 37 -23 61t-64 24q-44 0 -86 -31l-51 69q60 49 138 49q82 0 133.5 -47t51.5 -121q0 -116 -130 -157v-76h-88zM-461 1554q-155 0 -246.5 67t-91.5 203h107q0 -91 62.5 -135.5t168.5 -44.5q108 0 171 44.5t63 135.5h107q0 -137 -92 -203.5
t-249 -66.5z" />
    <glyph glyph-name="uni03060303.case" 
d="M-316 1890q-61 0 -99.5 26t-70.5 70q-17 24 -27.5 36.5t-31 24.5t-44.5 12q-51 0 -80 -42.5t-29 -111.5h-94q0 107 54.5 175t147.5 68q58 0 96 -25t70 -68q36 -47 56 -59q23 -16 52 -16q51 0 78.5 40.5t27.5 110.5h97q0 -106 -54.5 -173.5t-148.5 -67.5zM-461 1554
q-155 0 -246.5 67t-91.5 203h107q0 -91 62.5 -135.5t168.5 -44.5q108 0 171 44.5t63 135.5h107q0 -137 -92 -203.5t-249 -66.5z" />
    <glyph glyph-name="uni03020301.case" 
d="M-415 1948l251 326l92 -67l-224 -259h-119zM-505 1554h-118l211 295h128l211 -295h-119l-157 212z" />
    <glyph glyph-name="uni03020300.case" 
d="M-407 1948l-225 259l92 67l252 -326h-119zM-505 1554h-118l211 295h128l211 -295h-119l-157 212z" />
    <glyph glyph-name="uni03020309.case" 
d="M-392 1930v119q119 24 119 110q0 37 -23 61t-64 24q-44 0 -86 -31l-51 69q60 49 138 49q82 0 133.5 -47t51.5 -121q0 -116 -130 -157v-76h-88zM-505 1554h-118l211 295h128l211 -295h-119l-157 212z" />
    <glyph glyph-name="uni03020303.case" 
d="M-207 1942q-61 0 -99.5 26t-70.5 70q-17 24 -27.5 36.5t-31 24.5t-44.5 12q-51 0 -80 -42.5t-29 -111.5h-94q0 107 54.5 175t147.5 68q58 0 96 -25t70 -68q36 -47 56 -59q23 -16 52 -16q51 0 78.5 40.5t27.5 110.5h97q0 -106 -54.5 -173.5t-148.5 -67.5zM-505 1554h-118
l211 295h128l211 -295h-119l-157 212z" />
    </font>
</defs>
</svg>
